<?xml version="1.0" standalone="no"?>
<!DOCTYPE svg PUBLIC "-//W3C//DTD SVG 1.1//EN" "http://www.w3.org/Graphics/SVG/1.1/DTD/svg11.dtd" >
<svg xmlns="http://www.w3.org/2000/svg" xmlns:xlink="http://www.w3.org/1999/xlink" version="1.1">
<metadata>
Created by FontForge 20190801 at Thu Aug  5 17:54:37 2021
 By root
Copyright 2011 The Andada Pro Project Authors (https://github.com/huertatipografica/Andada)
</metadata>
<defs>
<font id="AndadaPro-Regular" horiz-adv-x="0" >
  <font-face 
    font-family="Andada Pro"
    font-weight="400"
    font-stretch="normal"
    units-per-em="1000"
    panose-1="0 0 0 0 0 0 0 0 0 0"
    ascent="800"
    descent="-200"
    x-height="494"
    cap-height="710"
    bbox="-128 -382 1346 1068"
    underline-thickness="20"
    underline-position="-190"
    unicode-range="U+000D-FB02"
  />
<missing-glyph horiz-adv-x="634" 
d="M81 0v706h471v-706h-471zM155 59h325l-163 264zM137 90l161 263l-161 263v-526zM497 90v526l-162 -263zM317 383l163 264h-325z" />
    <glyph glyph-name="f_b" unicode="fb" horiz-adv-x="903" 
d="M532 28l-23 31q23 -7 52 -12t63 -5q55 0 87.5 30t46.5 78.5t14 104.5q0 51 -11 94.5t-38 70.5t-76 27q-43 0 -71.5 -25.5t-42.5 -65t-14 -81.5v-111q0 -27 2 -55t5 -49.5t6 -31.5zM452 756h55l19 -18q-1 -21 -3 -49t-3 -55t-1 -46v-195l-8 18q10 21 29.5 42t49 35
t68.5 14q67 0 111 -32.5t66 -88.5t22 -125q0 -70 -27.5 -131t-78.5 -98t-122 -37q-63 0 -112 12t-80 24q2 19 3.5 41.5t2.5 41t1 25.5v484q0 11 -2.5 30t-6 38t-5.5 30l66 -31q-72 18 -127 26t-84 8q-38 0 -57 -18.5t-25 -51.5t-6 -75v-89l-13 9h156l-5 -52h-151l13 22v-300
q0 -39 3 -80t6 -59l-37 37l134 -10l-6 -52h-149q-10 0 -29 -1t-40.5 -2t-40.5 -2l-5 48l112 23l-39 -37q1 8 5 28t7.5 42.5t3.5 34.5v327l13 -19h-92l-3 42l94 12l-12 -20v123q0 52 20 90.5t59 59.5t96 21q35 0 68.5 -7t86.5 -7z" />
    <glyph glyph-name="f_f" unicode="ff" horiz-adv-x="730" 
d="M183 442l13 18v-296q0 -39 3 -80t6 -59l-37 37l134 -10l-6 -52h-148q-10 0 -29 -1t-40.5 -2t-40.5 -2l-5 48l111 23l-39 -37q1 8 5 28t7.5 42.5t3.5 34.5v320l13 -12h-92l-3 42l94 12l-12 -18v101q0 52 20 90.5t59 59.5t96 21q17 0 34 -2.5t25 -4.5l-11 -134l-39 3v35
q0 5 -5.5 28.5t-13.5 51.5l48 -27h-17h-17h-14q-39 0 -58 -18.5t-25 -51t-6 -75t-1 -90.5l-13 29l315 2l-12 -18v121q0 52 20 90.5t59 59.5t96 21q17 0 34 -2.5t25 -4.5l-11 -134l-39 3v35q0 5 -5.5 28.5t-13.5 51.5l48 -27h-17h-17h-14q-39 0 -58 -18.5t-25 -51t-6 -75
t-1 -90.5l-13 9h156l-5 -52h-151l13 18v-296q0 -39 3 -80t6 -59l-37 37l134 -10l-6 -52h-148q-10 0 -29 -1t-40.5 -2t-40.5 -2l-5 48l111 23l-39 -37q1 8 5 28t7.5 42.5t3.5 34.5v320l13 -12h-316z" />
    <glyph glyph-name="f_f_i" unicode="ffi" horiz-adv-x="1026" 
d="M866 592q-28 0 -43 17t-15 45q0 29 15 46.5t43 17.5t43 -16.5t15 -47.5q0 -28 -14.5 -45t-43.5 -17zM515 442h-352l34 34v-312q0 -32 2 -66t5 -55l-36 20l135 -11l-6 -52h-149q-10 0 -29 -1t-40.5 -2t-40.5 -2l-5 48l111 23l-37 -26q3 11 6.5 29t6 36.5t2.5 28.5v342
l34 -34h-113l-3 42l116 14l-34 -38v119q0 52 20 90.5t59 59.5t96 21q17 0 34 -2.5t25 -4.5l-11 -134l-39 3v35q0 4 -3 17t-8 32t-11 40l44 -36h-14h-13.5h-13.5q-39 0 -58 -18.5t-25 -51t-6 -75.5t-1 -92l-34 31h352l-41 -16v121q0 52 20 90.5t59 59.5t97 21q17 0 34 -2.5
t25 -4.5l-11 -134l-39 3v35q0 5 -6 28.5t-14 51.5l49 -27h-16.5h-17.5h-14q-39 0 -58 -18.5t-25 -51t-6.5 -75t-1.5 -90.5l-12 9h369l19 -18q-1 -15 -2.5 -41.5t-2.5 -55.5t-1 -53v-162q0 -39 3 -80t6 -59l-37 37l113 -10l-7 -52h-127q-10 0 -29 -1t-40.5 -2t-40.5 -2l-5 48
l112 23l-40 -37q2 8 5.5 28t7 42.5t3.5 34.5v222q0 13 -2.5 33.5t-6 42.5t-6.5 37l39 -46l-110 19h-220l12 22v-300q0 -39 3.5 -80t6.5 -59l-37 37l134 -10l-7 -52h-148q-10 0 -29 -1t-40.5 -2t-40.5 -2l-5 48l112 23l-40 -37q2 8 5.5 28t7 42.5t3.5 34.5v327z" />
    <glyph glyph-name="f_f_l" unicode="ffl" horiz-adv-x="1015" 
d="M515 494l-33 -18v123q0 52 20 90.5t59 59.5t96 21q35 0 74.5 -7t92.5 -7h71l19 -18q-1 -15 -2.5 -41.5t-2.5 -55.5t-1 -53v-424q0 -40 3 -80.5t6 -58.5l-37 37l113 -10l-7 -52h-127q-10 0 -29 -1t-40.5 -2t-40.5 -2l-5 48l112 23l-40 -37q2 8 5.5 28t7 42.5t3.5 34.5v484
q0 13 -2.5 33.5t-6 42.5t-6.5 37l39 -46q-72 18 -127 26t-84 8q-38 0 -57 -18.5t-25 -51.5t-6 -75v-89l-13 9h156l-5 -52h-151l13 22v-300q0 -39 3 -80t6 -59l-37 37l134 -10l-6 -52h-149q-10 0 -29 -1t-40.5 -2t-40.5 -2l-5 48l112 23l-39 -37q1 8 5 28t7.5 42.5t3.5 34.5
v327l33 -19h-352l34 34v-312q0 -32 2 -66t5 -55l-36 20l135 -11l-6 -52h-149q-10 0 -29 -1t-40.5 -2t-40.5 -2l-5 48l111 23l-37 -26q3 11 6.5 29t6 36.5t2.5 28.5v342l34 -34h-113l-3 42l116 14l-34 -38v119q0 52 20 90.5t59 59.5t96 21q17 0 34 -2.5t25 -4.5l-11 -134
l-39 3v35q0 4 -3 17t-8 32t-11 40l44 -36h-14h-13.5h-13.5q-39 0 -58 -18.5t-25 -51t-6 -75.5t-1 -92l-34 31h352z" />
    <glyph glyph-name="f_h" unicode="fh" horiz-adv-x="970" 
d="M482 756h55l19 -18q-1 -15 -2.5 -41.5t-2.5 -55.5t-1 -53v-195l-9 18q17 34 55.5 63t96.5 29q70 0 106 -29t49 -81t13 -122v-107q0 -37 3.5 -73t6.5 -56l-36 27l113 -10l-7 -52h-128q-7 0 -24.5 -1t-38 -2t-37.5 -2l-5 48l100 24l-37 -23q3 10 6.5 24.5t6 31.5t2.5 34
v139q0 44 -8 83.5t-31 64.5t-67 25q-61 0 -95.5 -48.5t-34.5 -122.5v-111q0 -39 3 -80t6 -59l-37 37l113 -10l-7 -52h-127q-10 0 -29 -1t-40.5 -2t-40.5 -2l-5 48l112 23l-40 -37q2 8 5.5 28t7 42.5t3.5 34.5v484q0 13 -2.5 33.5t-6 42.5t-6.5 37l39 -46q-72 18 -128 26
t-85 8q-38 0 -57 -18.5t-25 -51.5t-6 -75v-89l-13 9h156l-5 -52h-151l13 22v-300q0 -39 3 -80t6 -59l-37 37l134 -10l-6 -52h-149q-10 0 -29 -1t-40.5 -2t-40.5 -2l-5 48l112 23l-39 -37q1 8 5 28t7.5 42.5t3.5 34.5v327l13 -19h-92l-3 42l94 12l-12 -20v123q0 52 20 90.5
t59 59.5t96 21q35 0 83.5 -7t101.5 -7z" />
    <glyph glyph-name="f_i" unicode="fi" horiz-adv-x="660" 
d="M505 592q-28 0 -43 17t-15 45q0 29 15 46.5t43 17.5t43 -16.5t15 -47.5q0 -28 -14.5 -45t-43.5 -17zM188 464v-300q0 -39 3.5 -80t6.5 -59l-37 37l134 -10l-7 -52h-148q-10 0 -29 -1t-40.5 -2t-40.5 -2l-5 48l112 23l-40 -37q2 8 5.5 28t7 42.5t3.5 34.5v327l14 -19h-93
l-3 42l95 12l-13 -18v121q0 52 20 90.5t59 59.5t97 21q17 0 34 -2.5t25 -4.5l-11 -134l-39 3v35q0 5 -6 28.5t-14 51.5l49 -27h-16.5h-17.5h-14q-39 0 -58 -18.5t-25 -51t-6.5 -75t-1.5 -90.5l-12 9h369l19 -18q-1 -15 -2.5 -41.5t-2.5 -55.5t-1 -53v-162q0 -39 3 -80t6 -59
l-37 37l113 -10l-7 -52h-127q-10 0 -29 -1t-40.5 -2t-40.5 -2l-5 48l112 23l-40 -37q2 8 5.5 28t7 42.5t3.5 34.5v222q0 13 -2.5 33.5t-6 42.5t-6.5 37l39 -46l-110 19h-220z" />
    <glyph glyph-name="f_ij" unicode="f&#x133;" horiz-adv-x="930" 
d="M196 467v-303q0 -39 3.5 -80t6.5 -59l-37 37l134 -10l-7 -52h-148q-10 0 -29 -1t-40.5 -2t-40.5 -2l-5 48l112 23l-40 -37q2 8 5.5 28t7 42.5t3.5 34.5v326l14 -18h-93l-3 42l95 12l-13 -17v120q0 52 20 90.5t59 59.5t97 21q17 0 34 -2.5t25 -4.5l-11 -134l-39 3v35
q0 5 -6 28.5t-14 51.5l48 -27h-16h-17h-14q-39 0 -58 -18.5t-25 -51t-6.5 -75t-1.5 -90.5l-12 9h347l19 -18q-1 -21 -3 -49t-3 -55t-1 -46v-143q0 -58 22.5 -95.5t79.5 -37.5q43 0 71.5 23t43 59.5t14.5 75.5l15 -121q-6 -12 -23 -35.5t-50 -43t-87 -19.5q-70 0 -104.5 29.5
t-45.5 82t-11 120.5v135q0 9 -2 26.5t-5 38.5t-6 38l36 -37l-110 20h-197zM733 -235l-35 20l25.5 68t25 70.5t18.5 60.5t7 37v42v54v239q0 13 -3 33.5t-6.5 42.5t-6.5 37l39 -46l-109 19l4 52h145l19 -18q-1 -15 -3 -41.5t-3 -55.5t-1 -53v-336q0 -11 -11 -36t-28.5 -57.5
t-37.5 -67t-39 -64.5zM492 592q-28 0 -43 17t-15 45q0 29 15 46.5t43 17.5t43 -16.5t15 -47.5q0 -28 -14.5 -45t-43.5 -17zM798 592q-28 0 -43 17t-15 45q0 29 15 46.5t43 17.5t43 -16.5t15 -47.5q0 -28 -14.5 -45t-43.5 -17z" />
    <glyph glyph-name="f_j" unicode="fj" horiz-adv-x="623" 
d="M425 -235l-35 20l25.5 68t25 70.5t18.5 60.5t7 37v42v54v239q0 13 -2.5 33.5t-6 42.5t-6.5 37l39 -46l-109 19h-197l12 22v-300q0 -39 3.5 -80t6.5 -59l-37 37l134 -10l-7 -52h-148q-10 0 -29 -1t-40.5 -2t-40.5 -2l-5 48l112 23l-40 -37q2 8 5.5 28t7 42.5t3.5 34.5v327
l14 -19h-93l-3 42l95 12l-13 -18v121q0 52 20 90.5t59 59.5t97 21q17 0 34 -2.5t25 -4.5l-11 -134l-39 3v35q0 5 -6 28.5t-14 51.5l49 -27h-16.5h-17.5h-14q-39 0 -58 -18.5t-25 -51t-6.5 -75t-1.5 -90.5l-12 9h345l19 -18q-1 -15 -3 -41.5t-3 -55.5t-1 -53v-336
q0 -11 -11 -36t-28.5 -57.5t-37.5 -67t-39 -64.5zM491 592q-28 0 -43 17t-15 45q0 29 15 46.5t43 17.5t43 -16.5t15 -47.5q0 -28 -14.5 -45t-43.5 -17z" />
    <glyph glyph-name="f_k" unicode="fk" horiz-adv-x="968" 
d="M704 -6l-5 53l63 11l-54 58l-147 149l192 197l10 -30l-75 10l5 52h27.5h28.5h23h129l3 -52l-110 -12l49 12q-14 -7 -37.5 -20.5t-46 -28.5t-33.5 -27l-106 -112v49l167 -177q5 -6 18 -16t29.5 -22t34 -23.5t30.5 -20.5l-54 17l96 -9l-6 -52h-131q-14 0 -45.5 -2t-54.5 -4
zM482 756h55l19 -18q-1 -15 -2.5 -41.5t-2.5 -55.5t-1 -53v-424q0 -39 3 -80t6 -59l-37 37l113 -10l-7 -52h-127q-10 0 -29 -1t-40.5 -2t-40.5 -2l-5 48l112 23l-40 -37q2 8 5.5 28t7 42.5t3.5 34.5v484q0 13 -2.5 33.5t-6 42.5t-6.5 37l37 -46q-72 18 -127 26t-84 8
q-38 0 -57 -18.5t-25 -51.5t-6 -75v-89l-13 9h156l-5 -52h-151l13 22v-300q0 -39 3 -80t6 -59l-37 37l134 -10l-6 -52h-149q-10 0 -29 -1t-40.5 -2t-40.5 -2l-5 48l112 23l-39 -37q1 8 5 28t7.5 42.5t3.5 34.5v327l13 -19h-92l-3 42l94 12l-12 -20v123q0 52 20 90.5t59 59.5
t96 21q35 0 83.5 -7t101.5 -7z" />
    <glyph glyph-name="f_l" unicode="fl" horiz-adv-x="655" 
d="M38 -5l-5 48l112 23l-39 -37q1 8 5 28t7.5 42.5t3.5 34.5v327l13 -19h-92l-3 42l94 12l-12 -20v123q0 52 20 90.5t59 59.5t96 21q35 0 74.5 -7t92.5 -7h71l19 -18q-1 -15 -2.5 -41.5t-2.5 -55.5t-1 -53v-424q0 -40 3 -80.5t6 -58.5l-37 37l113 -10l-7 -52h-127
q-10 0 -29 -1t-40.5 -2t-40.5 -2l-5 48l112 23l-40 -37q2 8 5.5 28t7 42.5t3.5 34.5v484q0 13 -2.5 33.5t-6 42.5t-6.5 37l39 -46q-72 18 -127 26t-84 8q-38 0 -57 -18.5t-25 -51.5t-6 -75v-89l-13 9h156l-5 -52h-151l13 22v-300q0 -39 3 -80t6 -59l-37 37l134 -10l-6 -52
h-149q-10 0 -29 -1t-40.5 -2t-40.5 -2z" />
    <glyph glyph-name="f_thorn" unicode="f&#xfe;" horiz-adv-x="905" 
d="M454 756h55l19 -18q-1 -23 -2.5 -48t-2.5 -49t-1 -44v-218l-12 16q3 27 26 51.5t55.5 40.5t61.5 16q98 0 152 -64.5t54 -182.5q0 -76 -30 -136t-81.5 -95t-116.5 -35q-30 0 -62 9.5t-63 25.5l1 71q30 -25 60.5 -37t58.5 -12q72 0 111 54t39 154q0 95 -32.5 143.5
t-94.5 48.5q-58 0 -92.5 -44.5t-34.5 -116.5v-350q0 -39 3 -80t6 -59l-37 38l134 -10l-6 -53h-149q-10 0 -26.5 -1t-35 -2t-37.5 -2l-5 49l101 23l-40 -38q2 8 5.5 28t7 42.5t3.5 34.5v712q0 13 -3 35.5t-7 45t-6 32.5l66 -46q-72 18 -127 26t-84 8q-38 0 -57 -18.5
t-25 -51.5t-6 -75v-89l-13 9h156l-5 -52h-151l13 22v-300q0 -39 3 -80t6 -59l-37 37l134 -10l-6 -52h-149q-10 0 -29 -1t-40.5 -2t-40.5 -2l-5 48l112 23l-39 -37q1 8 5 28t7.5 42.5t3.5 34.5v327l13 -19h-92l-3 42l94 12l-12 -20v123q0 52 20 90.5t59 59.5t96 21
q35 0 69.5 -7t87.5 -7z" />
    <glyph glyph-name=".notdef" horiz-adv-x="634" 
d="M81 0v706h471v-706h-471zM155 59h325l-163 264zM137 90l161 263l-161 263v-526zM497 90v526l-162 -263zM317 383l163 264h-325z" />
    <glyph glyph-name="A" unicode="A" horiz-adv-x="742" 
d="M50 -5l-4 47l96 27l-40 -25q7 15 16.5 33.5t19 40t16.5 42.5l177 545l55 10l207 -564q9 -28 22.5 -55t24.5 -51l-42 25l97 -17l-5 -53h-102q-12 0 -36 -1t-51.5 -2t-51.5 -2l-3 47l106 32l-28 -33q-6 36 -13 68.5t-20 65.5l-149 418h21l-149 -465q-7 -21 -9 -43.5
t-4 -42.5l-31 26l105 -15l-5 -53h-85q-12 0 -35.5 -1t-50 -2t-49.5 -2zM222 225v51h283v-51h-283z" />
    <glyph glyph-name="Aacute" unicode="&#xc1;" horiz-adv-x="742" 
d="M50 -5l-4 47l96 27l-40 -25q7 15 16.5 33.5t19 40t16.5 42.5l177 545l55 10l207 -564q9 -28 22.5 -55t24.5 -51l-42 25l97 -17l-5 -53h-102q-12 0 -36 -1t-51.5 -2t-51.5 -2l-3 47l106 32l-28 -33q-6 36 -13 68.5t-20 65.5l-149 418h21l-149 -465q-7 -21 -9 -43.5
t-4 -42.5l-31 26l105 -15l-5 -53h-85q-12 0 -35.5 -1t-50 -2t-49.5 -2zM222 225v51h283v-51h-283zM284 738l-17 40l222 115l29 -62z" />
    <glyph glyph-name="Abreve" unicode="&#x102;" horiz-adv-x="742" 
d="M50 -5l-4 47l96 27l-40 -25q7 15 16.5 33.5t19 40t16.5 42.5l177 545l55 10l207 -564q9 -28 22.5 -55t24.5 -51l-42 25l97 -17l-5 -53h-102q-12 0 -36 -1t-51.5 -2t-51.5 -2l-3 47l106 32l-28 -33q-6 36 -13 68.5t-20 65.5l-149 418h21l-149 -465q-7 -21 -9 -43.5
t-4 -42.5l-31 26l105 -15l-5 -53h-85q-12 0 -35.5 -1t-50 -2t-49.5 -2zM222 225v51h283v-51h-283zM227 855l37 12q17 -33 43.5 -49.5t54.5 -16.5q29 0 55.5 16.5t42.5 49.5l36 -12q-13 -58 -51.5 -87.5t-82.5 -29.5t-83 29.5t-52 87.5z" />
    <glyph glyph-name="uni1EAE" unicode="&#x1eae;" horiz-adv-x="742" 
d="M50 -5l-4 47l96 27l-40 -25q7 15 16.5 33.5t19 40t16.5 42.5l177 545l55 10l207 -564q9 -28 22.5 -55t24.5 -51l-42 25l97 -17l-5 -53h-102q-12 0 -36 -1t-51.5 -2t-51.5 -2l-3 47l106 32l-28 -33q-6 36 -13 68.5t-20 65.5l-149 418h21l-149 -465q-7 -21 -9 -43.5
t-4 -42.5l-31 26l105 -15l-5 -53h-85q-12 0 -35.5 -1t-50 -2t-49.5 -2zM222 225v51h283v-51h-283zM364 738q-43 0 -82.5 23.5t-52.5 72.5l37 12q15 -28 42.5 -42.5t55.5 -14.5q29 0 55.5 14.5t42.5 42.5l36 -12q-7 -32 -28 -53.5t-49 -32t-57 -10.5zM301 849l-24 35l186 98
l38 -55z" />
    <glyph glyph-name="uni1EB6" unicode="&#x1eb6;" horiz-adv-x="742" 
d="M50 -5l-4 47l96 27l-40 -25q7 15 16.5 33.5t19 40t16.5 42.5l177 545l55 10l207 -564q9 -28 22.5 -55t24.5 -51l-42 25l97 -17l-5 -53h-102q-12 0 -36 -1t-51.5 -2t-51.5 -2l-3 47l106 32l-28 -33q-6 36 -13 68.5t-20 65.5l-149 418h21l-149 -465q-7 -21 -9 -43.5
t-4 -42.5l-31 26l105 -15l-5 -53h-85q-12 0 -35.5 -1t-50 -2t-49.5 -2zM222 225v51h283v-51h-283zM227 855l37 12q17 -33 43.5 -49.5t54.5 -16.5q29 0 55.5 16.5t42.5 49.5l36 -12q-13 -58 -51.5 -87.5t-82.5 -29.5t-83 29.5t-52 87.5zM359 -209q-28 0 -43 17t-15 45
q0 29 15 46.5t43 17.5t43 -16.5t15 -47.5q0 -28 -14.5 -45t-43.5 -17z" />
    <glyph glyph-name="uni1EB0" unicode="&#x1eb0;" horiz-adv-x="742" 
d="M50 -5l-4 47l96 27l-40 -25q7 15 16.5 33.5t19 40t16.5 42.5l177 545l55 10l207 -564q9 -28 22.5 -55t24.5 -51l-42 25l97 -17l-5 -53h-102q-12 0 -36 -1t-51.5 -2t-51.5 -2l-3 47l106 32l-28 -33q-6 36 -13 68.5t-20 65.5l-149 418h21l-149 -465q-7 -21 -9 -43.5
t-4 -42.5l-31 26l105 -15l-5 -53h-85q-12 0 -35.5 -1t-50 -2t-49.5 -2zM222 225v51h283v-51h-283zM375 738q-43 0 -82.5 23.5t-52.5 72.5l37 12q15 -28 42.5 -42.5t55.5 -14.5q29 0 55.5 14.5t42.5 42.5l36 -12q-7 -32 -28 -53.5t-49 -32t-57 -10.5zM416 833l-192 96l43 51
l176 -114z" />
    <glyph glyph-name="uni1EB2" unicode="&#x1eb2;" horiz-adv-x="742" 
d="M50 -5l-4 47l96 27l-40 -25q7 15 16.5 33.5t19 40t16.5 42.5l177 545l55 10l207 -564q9 -28 22.5 -55t24.5 -51l-42 25l97 -17l-5 -53h-102q-12 0 -36 -1t-51.5 -2t-51.5 -2l-3 47l106 32l-28 -33q-6 36 -13 68.5t-20 65.5l-149 418h21l-149 -465q-7 -21 -9 -43.5
t-4 -42.5l-31 26l105 -15l-5 -53h-85q-12 0 -35.5 -1t-50 -2t-49.5 -2zM222 225v51h283v-51h-283zM362 738q-43 0 -82.5 23.5t-52.5 72.5l37 12q15 -28 42.5 -42.5t55.5 -14.5q29 0 55.5 14.5t42.5 42.5l36 -12q-7 -32 -28 -53.5t-49 -32t-57 -10.5zM361 837q-31 0 -37 13
t-6 21q0 15 10.5 23t24 14t24 13.5t10.5 19.5q0 9 -8.5 14.5t-27.5 5.5q-10 0 -22 -2.5t-22 -4.5l-16 39q4 2 25.5 7.5t47.5 5.5q32 0 60 -16t28 -48q0 -18 -10.5 -29.5t-25 -19t-25 -14t-10.5 -15.5q0 -11 6 -21q-3 -2 -10 -4t-16 -2z" />
    <glyph glyph-name="uni1EB4" unicode="&#x1eb4;" horiz-adv-x="742" 
d="M50 -5l-4 47l96 27l-40 -25q7 15 16.5 33.5t19 40t16.5 42.5l177 545l55 10l207 -564q9 -28 22.5 -55t24.5 -51l-42 25l97 -17l-5 -53h-102q-12 0 -36 -1t-51.5 -2t-51.5 -2l-3 47l106 32l-28 -33q-6 36 -13 68.5t-20 65.5l-149 418h21l-149 -465q-7 -21 -9 -43.5
t-4 -42.5l-31 26l105 -15l-5 -53h-85q-12 0 -35.5 -1t-50 -2t-49.5 -2zM222 225v51h283v-51h-283zM367 738q-43 0 -82.5 23.5t-52.5 72.5l37 12q15 -28 42.5 -42.5t55.5 -14.5q29 0 55.5 14.5t42.5 42.5l36 -12q-7 -32 -28 -53.5t-49 -32t-57 -10.5zM245 857l-30 18
q9 20 21.5 42t27 37t27.5 15q18 0 44.5 -10t53.5 -20t45 -10q15 0 29.5 16t22.5 32l29 -17q-1 -3 -8 -17.5t-17.5 -31t-23.5 -29t-26 -12.5q-18 0 -44.5 10l-53 20t-44.5 10q-15 0 -30 -18t-23 -35z" />
    <glyph glyph-name="uni01CD" unicode="&#x1cd;" horiz-adv-x="742" 
d="M50 -5l-4 47l96 27l-40 -25q7 15 16.5 33.5t19 40t16.5 42.5l177 545l55 10l207 -564q9 -28 22.5 -55t24.5 -51l-42 25l97 -17l-5 -53h-102q-12 0 -36 -1t-51.5 -2t-51.5 -2l-3 47l106 32l-28 -33q-6 36 -13 68.5t-20 65.5l-149 418h21l-149 -465q-7 -21 -9 -43.5
t-4 -42.5l-31 26l105 -15l-5 -53h-85q-12 0 -35.5 -1t-50 -2t-49.5 -2zM222 225v51h283v-51h-283zM212 863l190 -86l-33 -39h-39l-140 90zM512 863l22 -35l-141 -90h-39l-33 39z" />
    <glyph glyph-name="Acircumflex" unicode="&#xc2;" horiz-adv-x="742" 
d="M50 -5l-4 47l96 27l-40 -25q7 15 16.5 33.5t19 40t16.5 42.5l177 545l55 10l207 -564q9 -28 22.5 -55t24.5 -51l-42 25l97 -17l-5 -53h-102q-12 0 -36 -1t-51.5 -2t-51.5 -2l-3 47l106 32l-28 -33q-6 36 -13 68.5t-20 65.5l-149 418h21l-149 -465q-7 -21 -9 -43.5
t-4 -42.5l-31 26l105 -15l-5 -53h-85q-12 0 -35.5 -1t-50 -2t-49.5 -2zM222 225v51h283v-51h-283zM512 738l-190 86l33 39h39l140 -90zM212 738l-22 35l141 90h39l33 -39z" />
    <glyph glyph-name="uni1EA4" unicode="&#x1ea4;" horiz-adv-x="742" 
d="M50 -5l-4 47l96 27l-40 -25q7 15 16.5 33.5t19 40t16.5 42.5l177 545l55 10l207 -564q9 -28 22.5 -55t24.5 -51l-42 25l97 -17l-5 -53h-102q-12 0 -36 -1t-51.5 -2t-51.5 -2l-3 47l106 32l-28 -33q-6 36 -13 68.5t-20 65.5l-149 418h21l-149 -465q-7 -21 -9 -43.5
t-4 -42.5l-31 26l105 -15l-5 -53h-85q-12 0 -35.5 -1t-50 -2t-49.5 -2zM222 225v51h283v-51h-283zM494 733l-175 100l36 32h35l135 -102zM231 733l-30 30l134 102h35l37 -32zM290 865l-24 35l186 98l38 -55z" />
    <glyph glyph-name="uni1EAC" unicode="&#x1eac;" horiz-adv-x="742" 
d="M50 -5l-4 47l96 27l-40 -25q7 15 16.5 33.5t19 40t16.5 42.5l177 545l55 10l207 -564q9 -28 22.5 -55t24.5 -51l-42 25l97 -17l-5 -53h-102q-12 0 -36 -1t-51.5 -2t-51.5 -2l-3 47l106 32l-28 -33q-6 36 -13 68.5t-20 65.5l-149 418h21l-149 -465q-7 -21 -9 -43.5
t-4 -42.5l-31 26l105 -15l-5 -53h-85q-12 0 -35.5 -1t-50 -2t-49.5 -2zM222 225v51h283v-51h-283zM512 738l-190 86l33 39h39l140 -90zM212 738l-22 35l141 90h39l33 -39zM359 -209q-28 0 -43 17t-15 45q0 29 15 46.5t43 17.5t43 -16.5t15 -47.5q0 -28 -14.5 -45t-43.5 -17z
" />
    <glyph glyph-name="uni1EA6" unicode="&#x1ea6;" horiz-adv-x="742" 
d="M50 -5l-4 47l96 27l-40 -25q7 15 16.5 33.5t19 40t16.5 42.5l177 545l55 10l207 -564q9 -28 22.5 -55t24.5 -51l-42 25l97 -17l-5 -53h-102q-12 0 -36 -1t-51.5 -2t-51.5 -2l-3 47l106 32l-28 -33q-6 36 -13 68.5t-20 65.5l-149 418h21l-149 -465q-7 -21 -9 -43.5
t-4 -42.5l-31 26l105 -15l-5 -53h-85q-12 0 -35.5 -1t-50 -2t-49.5 -2zM222 225v51h283v-51h-283zM490 733l-175 100l36 32h35l135 -102zM227 733l-30 30l134 102h35l37 -32zM434 877l-192 96l43 51l176 -114z" />
    <glyph glyph-name="uni1EA8" unicode="&#x1ea8;" horiz-adv-x="742" 
d="M50 -5l-4 47l96 27l-40 -25q7 15 16.5 33.5t19 40t16.5 42.5l177 545l55 10l207 -564q9 -28 22.5 -55t24.5 -51l-42 25l97 -17l-5 -53h-102q-12 0 -36 -1t-51.5 -2t-51.5 -2l-3 47l106 32l-28 -33q-6 36 -13 68.5t-20 65.5l-149 418h21l-149 -465q-7 -21 -9 -43.5
t-4 -42.5l-31 26l105 -15l-5 -53h-85q-12 0 -35.5 -1t-50 -2t-49.5 -2zM222 225v51h283v-51h-283zM493 733l-175 100l36 32h35l135 -102zM230 733l-30 30l134 102h35l37 -32zM363 884q-31 0 -37 13t-6 21q0 15 10.5 23t24 14t24 13.5t10.5 19.5q0 9 -8.5 14.5t-27.5 5.5
q-10 0 -22 -2.5t-22 -4.5l-16 39q4 2 25.5 7.5t47.5 5.5q32 0 60 -16t28 -48q0 -18 -10.5 -29.5t-25 -19t-25 -14t-10.5 -15.5q0 -11 6 -21q-3 -2 -10 -4t-16 -2z" />
    <glyph glyph-name="uni1EAA" unicode="&#x1eaa;" horiz-adv-x="742" 
d="M50 -5l-4 47l96 27l-40 -25q7 15 16.5 33.5t19 40t16.5 42.5l177 545l55 10l207 -564q9 -28 22.5 -55t24.5 -51l-42 25l97 -17l-5 -53h-102q-12 0 -36 -1t-51.5 -2t-51.5 -2l-3 47l106 32l-28 -33q-6 36 -13 68.5t-20 65.5l-149 418h21l-149 -465q-7 -21 -9 -43.5
t-4 -42.5l-31 26l105 -15l-5 -53h-85q-12 0 -35.5 -1t-50 -2t-49.5 -2zM222 225v51h283v-51h-283zM506 733l-175 100l36 32h35l135 -102zM243 733l-30 30l134 102h35l37 -32zM248 867l-30 18q9 20 21.5 42t27 37t27.5 15q18 0 44.5 -10t53.5 -20t45 -10q15 0 29.5 16
t22.5 32l29 -17q-1 -3 -8 -17.5t-17.5 -31t-23.5 -29t-26 -12.5q-18 0 -44.5 10l-53 20t-44.5 10q-15 0 -30 -18t-23 -35z" />
    <glyph glyph-name="uni0200" unicode="&#x200;" horiz-adv-x="742" 
d="M50 -5l-4 47l96 27l-40 -25q7 15 16.5 33.5t19 40t16.5 42.5l177 545l55 10l207 -564q9 -28 22.5 -55t24.5 -51l-42 25l97 -17l-5 -53h-102q-12 0 -36 -1t-51.5 -2t-51.5 -2l-3 47l106 32l-28 -33q-6 36 -13 68.5t-20 65.5l-149 418h21l-149 -465q-7 -21 -9 -43.5
t-4 -42.5l-31 26l105 -15l-5 -53h-85q-12 0 -35.5 -1t-50 -2t-49.5 -2zM222 225v51h283v-51h-283zM493 738l-205 148l44 52l187 -165zM370 738l-227 111l34 60l214 -132z" />
    <glyph glyph-name="Adieresis" unicode="&#xc4;" horiz-adv-x="742" 
d="M50 -5l-4 47l96 27l-40 -25q7 15 16.5 33.5t19 40t16.5 42.5l177 545l55 10l207 -564q9 -28 22.5 -55t24.5 -51l-42 25l97 -17l-5 -53h-102q-12 0 -36 -1t-51.5 -2t-51.5 -2l-3 47l106 32l-28 -33q-6 36 -13 68.5t-20 65.5l-149 418h21l-149 -465q-7 -21 -9 -43.5
t-4 -42.5l-31 26l105 -15l-5 -53h-85q-12 0 -35.5 -1t-50 -2t-49.5 -2zM222 225v51h283v-51h-283zM453 738q-26 0 -40.5 15t-14.5 42q0 25 15 40t40 15t39.5 -14t14.5 -41t-14 -42t-40 -15zM272 738q-26 0 -40.5 15t-14.5 42q0 25 15 40t40 15q24 0 39 -14t15 -41t-14.5 -42
t-39.5 -15z" />
    <glyph glyph-name="uni01DE" unicode="&#x1de;" horiz-adv-x="742" 
d="M50 -5l-4 47l96 27l-40 -25q7 15 16.5 33.5t19 40t16.5 42.5l177 545l55 10l207 -564q9 -28 22.5 -55t24.5 -51l-42 25l97 -17l-5 -53h-102q-12 0 -36 -1t-51.5 -2t-51.5 -2l-3 47l106 32l-28 -33q-6 36 -13 68.5t-20 65.5l-149 418h21l-149 -465q-7 -21 -9 -43.5
t-4 -42.5l-31 26l105 -15l-5 -53h-85q-12 0 -35.5 -1t-50 -2t-49.5 -2zM222 225v51h283v-51h-283zM449 738q-23 0 -35.5 15.5t-12.5 38.5q0 25 12.5 40.5t35.5 15.5t35.5 -14.5t12.5 -41.5q0 -24 -12.5 -39t-35.5 -15zM272 738q-23 0 -36 15t-13 39q0 26 13 41t36 15
t35 -14.5t12 -41.5q0 -23 -12 -38.5t-35 -15.5zM211 885v54h300l-5 -54h-295z" />
    <glyph glyph-name="uni1EA0" unicode="&#x1ea0;" horiz-adv-x="742" 
d="M50 -5l-4 47l96 27l-40 -25q7 15 16.5 33.5t19 40t16.5 42.5l177 545l55 10l207 -564q9 -28 22.5 -55t24.5 -51l-42 25l97 -17l-5 -53h-102q-12 0 -36 -1t-51.5 -2t-51.5 -2l-3 47l106 32l-28 -33q-6 36 -13 68.5t-20 65.5l-149 418h21l-149 -465q-7 -21 -9 -43.5
t-4 -42.5l-31 26l105 -15l-5 -53h-85q-12 0 -35.5 -1t-50 -2t-49.5 -2zM222 225v51h283v-51h-283zM359 -209q-28 0 -43 17t-15 45q0 29 15 46.5t43 17.5t43 -16.5t15 -47.5q0 -28 -14.5 -45t-43.5 -17z" />
    <glyph glyph-name="Agrave" unicode="&#xc0;" horiz-adv-x="742" 
d="M50 -5l-4 47l96 27l-40 -25q7 15 16.5 33.5t19 40t16.5 42.5l177 545l55 10l207 -564q9 -28 22.5 -55t24.5 -51l-42 25l97 -17l-5 -53h-102q-12 0 -36 -1t-51.5 -2t-51.5 -2l-3 47l106 32l-28 -33q-6 36 -13 68.5t-20 65.5l-149 418h21l-149 -465q-7 -21 -9 -43.5
t-4 -42.5l-31 26l105 -15l-5 -53h-85q-12 0 -35.5 -1t-50 -2t-49.5 -2zM222 225v51h283v-51h-283zM457 738l-234 93l29 62l222 -115z" />
    <glyph glyph-name="uni1EA2" unicode="&#x1ea2;" horiz-adv-x="742" 
d="M50 -5l-4 47l96 27l-40 -25q7 15 16.5 33.5t19 40t16.5 42.5l177 545l55 10l207 -564q9 -28 22.5 -55t24.5 -51l-42 25l97 -17l-5 -53h-102q-12 0 -36 -1t-51.5 -2t-51.5 -2l-3 47l106 32l-28 -33q-6 36 -13 68.5t-20 65.5l-149 418h21l-149 -465q-7 -21 -9 -43.5
t-4 -42.5l-31 26l105 -15l-5 -53h-85q-12 0 -35.5 -1t-50 -2t-49.5 -2zM222 225v51h283v-51h-283zM355 738q-20 0 -29.5 10.5t-9.5 20.5q0 17 9 26t21 14.5t21 11.5t9 16q0 11 -8 15.5t-20 4.5t-24 -3.5t-23 -8.5l-16 39q15 5 29.5 8.5t40.5 3.5q42 0 63.5 -14.5t21.5 -34.5
q0 -18 -10 -29.5t-22.5 -20t-22.5 -17t-10 -19.5q0 -9 6 -17q-4 -2 -11 -4t-15 -2z" />
    <glyph glyph-name="uni0202" unicode="&#x202;" horiz-adv-x="742" 
d="M50 -5l-4 47l96 27l-40 -25q7 15 16.5 33.5t19 40t16.5 42.5l177 545l55 10l207 -564q9 -28 22.5 -55t24.5 -51l-42 25l97 -17l-5 -53h-102q-12 0 -36 -1t-51.5 -2t-51.5 -2l-3 47l106 32l-28 -33q-6 36 -13 68.5t-20 65.5l-149 418h21l-149 -465q-7 -21 -9 -43.5
t-4 -42.5l-31 26l105 -15l-5 -53h-85q-12 0 -35.5 -1t-50 -2t-49.5 -2zM222 225v51h283v-51h-283zM497 749l-37 -12q-16 33 -42.5 49.5t-55.5 16.5q-28 0 -54.5 -16.5t-43.5 -49.5l-36 12q13 59 52 88t82 29q44 0 83 -29t52 -88z" />
    <glyph glyph-name="Amacron" unicode="&#x100;" horiz-adv-x="742" 
d="M50 -5l-4 47l96 27l-40 -25q7 15 16.5 33.5t19 40t16.5 42.5l177 545l55 10l207 -564q9 -28 22.5 -55t24.5 -51l-42 25l97 -17l-5 -53h-102q-12 0 -36 -1t-51.5 -2t-51.5 -2l-3 47l106 32l-28 -33q-6 36 -13 68.5t-20 65.5l-149 418h21l-149 -465q-7 -21 -9 -43.5
t-4 -42.5l-31 26l105 -15l-5 -53h-85q-12 0 -35.5 -1t-50 -2t-49.5 -2zM222 225v51h283v-51h-283zM202 738v54h320l-5 -54h-315z" />
    <glyph glyph-name="Aogonek" unicode="&#x104;" horiz-adv-x="741" 
d="M50 -5l-4 47l98 27l-41 -24q11 20 26 52t25 63l178 545l53 10l207 -564q10 -28 23.5 -55.5t24.5 -51.5l-41 24l96 -16l-5 -52h-103h-85l23 76v-34q-6 33 -14 67t-20 67l-149 418l22 1l-151 -467q-6 -21 -8.5 -43.5t-4.5 -42.5l-31 26l105 -16l-5 -52h-84q-9 0 -31 -1
t-46 -1.5t-41 -1.5zM222 237v50h283v-50h-283zM526 -210q-25 0 -52 8t-45.5 28t-18.5 55q0 33 23.5 65.5t84.5 62.5l65 -9q-47 -19 -74 -53t-27 -62q0 -19 14.5 -32.5t45.5 -13.5q8 0 17 1.5t17 3.5l11 -43q-13 -5 -29.5 -8t-31.5 -3z" />
    <glyph glyph-name="Aring" unicode="&#xc5;" horiz-adv-x="742" 
d="M50 -5l-4 47l96 27l-40 -25q7 15 16.5 33.5t19 40t16.5 42.5l177 545l55 10l207 -564q9 -28 22.5 -55t24.5 -51l-42 25l97 -17l-5 -53h-102q-12 0 -36 -1t-51.5 -2t-51.5 -2l-3 47l106 32l-28 -33q-6 36 -13 68.5t-20 65.5l-149 418h21l-149 -465q-7 -21 -9 -43.5
t-4 -42.5l-31 26l105 -15l-5 -53h-85q-12 0 -35.5 -1t-50 -2t-49.5 -2zM222 225v51h283v-51h-283zM362 738q-45 0 -67.5 23.5t-22.5 61.5t22.5 61.5t67.5 23.5t66.5 -23.5t21.5 -61.5t-21.5 -61.5t-66.5 -23.5zM362 775q24 0 34 14.5t10 33.5q0 20 -10 34.5t-34 14.5
q-22 0 -32.5 -14.5t-10.5 -34.5q0 -19 10.5 -33.5t32.5 -14.5z" />
    <glyph glyph-name="Aringacute" unicode="&#x1fa;" horiz-adv-x="742" 
d="M50 -5l-4 47l96 27l-40 -25q7 15 16.5 33.5t19 40t16.5 42.5l177 545l55 10l207 -564q9 -28 22.5 -55t24.5 -51l-42 25l97 -17l-5 -53h-102q-12 0 -36 -1t-51.5 -2t-51.5 -2l-3 47l106 32l-28 -33q-6 36 -13 68.5t-20 65.5l-149 418h21l-149 -465q-7 -21 -9 -43.5
t-4 -42.5l-31 26l105 -15l-5 -53h-85q-12 0 -35.5 -1t-50 -2t-49.5 -2zM222 225v51h283v-51h-283zM363 738q-42 0 -64 22t-22 58q0 38 22 60.5t64 22.5q43 0 64 -22.5t21 -60.5q0 -36 -21 -58t-64 -22zM363 775q21 0 31 13t10 30q0 19 -9 32.5t-32 13.5q-20 0 -30 -13
t-10 -33q0 -17 10 -30t30 -13zM301 902l-24 35l186 98l38 -55z" />
    <glyph glyph-name="Atilde" unicode="&#xc3;" horiz-adv-x="742" 
d="M50 -5l-4 47l96 27l-40 -25q7 15 16.5 33.5t19 40t16.5 42.5l177 545l55 10l207 -564q9 -28 22.5 -55t24.5 -51l-42 25l97 -17l-5 -53h-102q-12 0 -36 -1t-51.5 -2t-51.5 -2l-3 47l106 32l-28 -33q-6 36 -13 68.5t-20 65.5l-149 418h21l-149 -465q-7 -21 -9 -43.5
t-4 -42.5l-31 26l105 -15l-5 -53h-85q-12 0 -35.5 -1t-50 -2t-49.5 -2zM222 225v51h283v-51h-283zM230 733l-35 21q9 22 22.5 45t29.5 39t30 16q15 0 36.5 -6t45 -14.5t45 -14.5t36.5 -6t30 18t24 34l35 -20q-9 -21 -23 -43.5t-29.5 -38.5t-30.5 -16t-36.5 6t-45 14.5
t-44.5 14.5t-36 6t-30.5 -18.5t-23.5 -36.5z" />
    <glyph glyph-name="AE" unicode="&#xc6;" horiz-adv-x="989" 
d="M50 -5l-4 47l96 27l-46 -25q9 10 19.5 26.5t21.5 34.5t18.5 33t10.5 22l238 545h98v-21q1 -8 3 -34.5t5 -58t5 -53.5l78 -372l29 -145l-36 -21q-11 0 -35 -1t-52 -2t-52 -2l-4 47l104 31l-32 -40q1 35 -1.5 56.5t-5.5 40.5l-95 496l21 -2l-215 -496q-2 -5 -6.5 -24
t-9 -40t-7.5 -32l-27 36l106 -15l-5 -53h-85q-34 0 -71 -1.5t-64 -3.5zM232 236l-2 51h314l2 -51h-314zM889 -4q-19 1 -42.5 2t-43 1.5t-28.5 0.5h-236v55h206q30 0 59.5 4.5t42.5 7.5l-30 -24q11 14 23 30.5t14 26.5l15 68l54 -5l-15 -149zM781 266l-14 104l36 -41
q-11 2 -32.5 4.5t-44 4.5t-35.5 2h-152v54h172q21 0 49 4.5t38 5.5l-31 -40l14 105l44 -5v-84q0 -54 3 -108zM845 557l-11 55q-1 8 -14 25t-24 27l33 -19q-15 2 -42.5 4t-54.5 2h-281v54h311q9 0 29 0.5t43 2t42 2.5l19 -18l7 -130z" />
    <glyph glyph-name="AEacute" unicode="&#x1fc;" horiz-adv-x="989" 
d="M50 -5l-4 47l96 27l-46 -25q9 10 19.5 26.5t21.5 34.5t18.5 33t10.5 22l238 545h98v-21q1 -8 3 -34.5t5 -58t5 -53.5l78 -372l29 -145l-36 -21q-11 0 -35 -1t-52 -2t-52 -2l-4 47l104 31l-32 -40q1 35 -1.5 56.5t-5.5 40.5l-95 496l21 -2l-215 -496q-2 -5 -6.5 -24
t-9 -40t-7.5 -32l-27 36l106 -15l-5 -53h-85q-34 0 -71 -1.5t-64 -3.5zM232 236l-2 51h314l2 -51h-314zM889 -4q-19 1 -42.5 2t-43 1.5t-28.5 0.5h-236v55h206q30 0 59.5 4.5t42.5 7.5l-30 -24q11 14 23 30.5t14 26.5l15 68l54 -5l-15 -149zM781 266l-14 104l36 -41
q-11 2 -32.5 4.5t-44 4.5t-35.5 2h-152v54h172q21 0 49 4.5t38 5.5l-31 -40l14 105l44 -5v-84q0 -54 3 -108zM845 557l-11 55q-1 8 -14 25t-24 27l33 -19q-15 2 -42.5 4t-54.5 2h-281v54h311q9 0 29 0.5t43 2t42 2.5l19 -18l7 -130zM602 753l-17 40l222 115l29 -62z" />
    <glyph glyph-name="B" unicode="B" horiz-adv-x="629" 
d="M61 -5l-5 49l114 23l-38 -43q2 13 5 35t5.5 43.5t2.5 32.5v435q0 8 -1.5 21.5t-3.5 29t-4 29t-4 20.5l24 -27l-98 15l5 52q19 -1 42 -2t43.5 -2t29.5 -1q25 0 54.5 1.5t58.5 2.5t54 1q51 0 93.5 -20t68 -57t25.5 -90q0 -48 -21 -86t-57.5 -61.5t-83.5 -30.5l23 39v-75
l-25 37q56 -3 100 -25.5t69.5 -62t25.5 -95.5t-26.5 -98.5t-72 -65.5t-102.5 -23q-37 0 -83 2t-84 2q-12 0 -35 -1t-49.5 -2t-49.5 -2zM242 20l-21 38q19 -1 49 -3.5t61 -2.5q60 0 97.5 35.5t37.5 102.5q0 51 -23.5 84t-62.5 48.5t-84 15.5h-12l7 55h8q60 0 102 35.5
t42 103.5q0 57 -33 91.5t-86 34.5h-55.5t-49.5 -2l23 25q-1 -7 -3.5 -31t-5 -53.5t-2.5 -56.5v-375q0 -27 1.5 -56t4.5 -53t5 -36z" />
    <glyph glyph-name="C" unicode="C" horiz-adv-x="675" 
d="M387 -15q-104 0 -174 46.5t-105 129t-35 191.5t35 192t105 129.5t174 46.5q62 0 111 -11t96 -23l-10 -146l-58 4v46q0 10 -7 34t-12 42l26 -33q-29 13 -70.5 22.5t-75.5 9.5q-72 0 -120.5 -41.5t-72.5 -112t-24 -158.5q0 -87 24 -158t72 -113t120 -42q36 0 80.5 8.5
t75.5 21.5l-28 -34q6 15 11 31.5t8.5 30.5t3.5 21l2 47l58 2l6 -149q-47 -12 -101 -23t-115 -11z" />
    <glyph glyph-name="Cacute" unicode="&#x106;" horiz-adv-x="675" 
d="M387 -15q-104 0 -174 46.5t-105 129t-35 191.5t35 192t105 129.5t174 46.5q62 0 111 -11t96 -23l-10 -146l-58 4v46q0 10 -7 34t-12 42l26 -33q-29 13 -70.5 22.5t-75.5 9.5q-72 0 -120.5 -41.5t-72.5 -112t-24 -158.5q0 -87 24 -158t72 -113t120 -42q36 0 80.5 8.5
t75.5 21.5l-28 -34q6 15 11 31.5t8.5 30.5t3.5 21l2 47l58 2l6 -149q-47 -12 -101 -23t-115 -11zM299 753l-17 40l222 115l29 -62z" />
    <glyph glyph-name="Ccaron" unicode="&#x10c;" horiz-adv-x="675" 
d="M387 -15q-104 0 -174 46.5t-105 129t-35 191.5t35 192t105 129.5t174 46.5q62 0 111 -11t96 -23l-10 -146l-58 4v46q0 10 -7 34t-12 42l26 -33q-29 13 -70.5 22.5t-75.5 9.5q-72 0 -120.5 -41.5t-72.5 -112t-24 -158.5q0 -87 24 -158t72 -113t120 -42q36 0 80.5 8.5
t75.5 21.5l-28 -34q6 15 11 31.5t8.5 30.5t3.5 21l2 47l58 2l6 -149q-47 -12 -101 -23t-115 -11zM227 878l190 -86l-33 -39h-39l-140 90zM527 878l22 -35l-141 -90h-39l-33 39z" />
    <glyph glyph-name="Ccedilla" unicode="&#xc7;" horiz-adv-x="675" 
d="M387 -15q-104 0 -174 46.5t-105 129t-35 191.5t35 192t105 129.5t174 46.5q62 0 111 -11t96 -23l-10 -146l-58 4v46q0 10 -7 34t-12 42l26 -33q-29 13 -70.5 22.5t-75.5 9.5q-72 0 -120.5 -41.5t-72.5 -112t-24 -158.5q0 -87 24 -158t72 -113t120 -42q36 0 80.5 8.5
t75.5 21.5l-28 -34q6 15 11 31.5t8.5 30.5t3.5 21l2 47l58 2l6 -149q-47 -12 -101 -23t-115 -11zM309 -247l-7 35q41 2 70.5 20t27.5 41q-1 14 -16.5 23t-45.5 10l-9 6l27 129h42l-37 -114l-14 41q60 -10 83 -36.5t23 -53.5q0 -17 -10 -37.5t-30 -36.5q-18 -13 -43.5 -20
t-60.5 -7z" />
    <glyph glyph-name="uni1E08" unicode="&#x1e08;" horiz-adv-x="675" 
d="M387 -15q-104 0 -174 46.5t-105 129t-35 191.5t35 192t105 129.5t174 46.5q62 0 111 -11t96 -23l-10 -146l-58 4v46q0 10 -7 34t-12 42l26 -33q-29 13 -70.5 22.5t-75.5 9.5q-72 0 -120.5 -41.5t-72.5 -112t-24 -158.5q0 -87 24 -158t72 -113t120 -42q36 0 80.5 8.5
t75.5 21.5l-28 -34q6 15 11 31.5t8.5 30.5t3.5 21l2 47l58 2l6 -149q-47 -12 -101 -23t-115 -11zM309 -247l-7 35q41 2 70.5 20t27.5 41q-1 14 -16.5 23t-45.5 10l-9 6l27 129h42l-37 -114l-14 41q60 -10 83 -36.5t23 -53.5q0 -17 -10 -37.5t-30 -36.5q-18 -13 -43.5 -20
t-60.5 -7zM299 753l-17 40l222 115l29 -62z" />
    <glyph glyph-name="Ccircumflex" unicode="&#x108;" horiz-adv-x="675" 
d="M387 -15q-104 0 -174 46.5t-105 129t-35 191.5t35 192t105 129.5t174 46.5q62 0 111 -11t96 -23l-10 -146l-58 4v46q0 10 -7 34t-12 42l26 -33q-29 13 -70.5 22.5t-75.5 9.5q-72 0 -120.5 -41.5t-72.5 -112t-24 -158.5q0 -87 24 -158t72 -113t120 -42q36 0 80.5 8.5
t75.5 21.5l-28 -34q6 15 11 31.5t8.5 30.5t3.5 21l2 47l58 2l6 -149q-47 -12 -101 -23t-115 -11zM527 753l-190 86l33 39h39l140 -90zM227 753l-22 35l141 90h39l33 -39z" />
    <glyph glyph-name="Cdotaccent" unicode="&#x10a;" horiz-adv-x="675" 
d="M387 -15q-104 0 -174 46.5t-105 129t-35 191.5t35 192t105 129.5t174 46.5q62 0 111 -11t96 -23l-10 -146l-58 4v46q0 10 -7 34t-12 42l26 -33q-29 13 -70.5 22.5t-75.5 9.5q-72 0 -120.5 -41.5t-72.5 -112t-24 -158.5q0 -87 24 -158t72 -113t120 -42q36 0 80.5 8.5
t75.5 21.5l-28 -34q6 15 11 31.5t8.5 30.5t3.5 21l2 47l58 2l6 -149q-47 -12 -101 -23t-115 -11zM377 754q-28 0 -43 17t-15 45q0 29 15 46.5t43 17.5t43 -16.5t15 -47.5q0 -28 -14.5 -45t-43.5 -17z" />
    <glyph glyph-name="D" unicode="D" horiz-adv-x="761" 
d="M61 -5l-5 49l114 23l-40 -45q2 12 5.5 34.5t6.5 45.5t3 33v435q0 11 -3 32.5t-6 42.5t-5 29l39 -34l-112 18l5 52q19 -1 41.5 -2t43 -2t29.5 -1q33 0 58.5 1.5t51.5 2.5t60 1q111 0 188 -44t116.5 -124t39.5 -190q0 -105 -41.5 -185.5t-118.5 -125.5t-184 -45
q-37 0 -75.5 2t-76.5 2q-12 0 -35 -1t-49.5 -2t-49.5 -2zM240 36l-16 20q20 0 51.5 -1.5t73.5 -1.5q84 0 139 40.5t82 108.5t27 150t-27 150t-82 109t-139 41h-74.5h-49.5l18 26q-2 -7 -4 -22t-4 -35t-3 -41.5t-1 -39.5v-375q0 -30 2 -55t4.5 -43.5t2.5 -30.5z" />
    <glyph glyph-name="uni01F1" unicode="&#x1f1;" horiz-adv-x="1390" 
d="M61 -5l-5 49l114 23l-40 -45q2 12 5.5 34.5t6.5 45.5t3 33v435q0 11 -3 32.5t-6 42.5t-5 29l39 -34l-112 18l5 52q19 -1 41.5 -2t43 -2t29.5 -1q33 0 58.5 1.5t51.5 2.5t60 1q111 0 188 -44t116.5 -124t39.5 -190q0 -105 -41.5 -185.5t-118.5 -125.5t-184 -45
q-37 0 -75.5 2t-76.5 2q-12 0 -35 -1t-49.5 -2t-49.5 -2zM240 36l-16 20q20 0 51.5 -1.5t73.5 -1.5q84 0 139 40.5t82 108.5t27 150t-27 150t-82 109t-139 41h-74.5h-49.5l18 26q-2 -7 -4 -22t-4 -35t-3 -41.5t-1 -39.5v-375q0 -30 2 -55t4.5 -43.5t2.5 -30.5zM1291 -4
q-28 2 -56.5 3t-57.5 1h-345l-7 55q18 25 39.5 56t41.5 60t31 47l191 302q25 38 46 78.5t43 80.5l17 -31h-220q-18 0 -40 -1.5t-41.5 -2.5t-28.5 -2l39 32l-31 -65q-2 -3 -4.5 -18.5t-5 -34t-3.5 -32.5l-57 5l7 168l19 18q19 -2 38.5 -4t38.5 -3.5t37 -2.5h327l7 -54
q-28 -40 -55 -77t-53 -78l-194 -306q-7 -12 -23 -41t-34.5 -62.5t-33.5 -61.5l-16 32h240q20 0 46.5 3t51 6.5t36.5 5.5l-74 -45q9 11 19.5 26t18.5 28.5t11 18.5q2 5 5 21t6 33t4 24l54 -5l-15 -159z" />
    <glyph glyph-name="uni01C4" unicode="&#x1c4;" horiz-adv-x="1350" 
d="M61 -5l-5 49l114 23l-40 -45q2 12 5.5 34.5t6.5 45.5t3 33v435q0 11 -3 32.5t-6 42.5t-5 29l39 -34l-112 18l5 52q19 -1 41.5 -2t43 -2t29.5 -1q33 0 58.5 1.5t51.5 2.5t60 1q111 0 188 -44t116.5 -124t39.5 -190q0 -105 -41.5 -185.5t-118.5 -125.5t-184 -45
q-37 0 -75.5 2t-76.5 2q-12 0 -35 -1t-49.5 -2t-49.5 -2zM240 36l-16 20q20 0 51.5 -1.5t73.5 -1.5q84 0 139 40.5t82 108.5t27 150t-27 150t-82 109t-139 41h-74.5h-49.5l18 26q-2 -7 -4 -22t-4 -35t-3 -41.5t-1 -39.5v-375q0 -30 2 -55t4.5 -43.5t2.5 -30.5zM1251 -4
q-28 2 -56.5 3t-57.5 1h-345l-7 55q18 25 39.5 56t41.5 60t31 47l191 302q25 38 46 78.5t43 80.5l17 -31h-220q-18 0 -40 -1.5t-41.5 -2.5t-28.5 -2l39 32l-31 -65q-2 -3 -4.5 -18.5t-5 -34t-3.5 -32.5l-57 5l7 168l19 18q19 -2 38.5 -4t38.5 -3.5t37 -2.5h327l7 -54
q-28 -40 -55 -77t-53 -78l-194 -306q-7 -12 -23 -41t-34.5 -62.5t-33.5 -61.5l-16 32h240q20 0 46.5 3t51 6.5t36.5 5.5l-74 -45q9 11 19.5 26t18.5 28.5t11 18.5q2 5 5 21t6 33t4 24l54 -5l-15 -159zM887 878l190 -86l-33 -39h-39l-140 90zM1187 878l22 -35l-141 -90h-39
l-33 39z" />
    <glyph glyph-name="Eth" unicode="&#xd0;" horiz-adv-x="761" 
d="M61 -5l-5 49l114 23l-40 -45q2 12 5.5 34.5t6.5 45.5t3 33v435q0 11 -3 32.5t-6 42.5t-5 29l39 -34l-112 18l5 52q19 -1 41.5 -2t43 -2t29.5 -1q33 0 58.5 1.5t51.5 2.5t60 1q111 0 188 -44t116.5 -124t39.5 -190q0 -105 -41.5 -185.5t-118.5 -125.5t-184 -45
q-37 0 -75.5 2t-76.5 2q-12 0 -35 -1t-49.5 -2t-49.5 -2zM240 36l-16 20q20 0 51.5 -1.5t73.5 -1.5q84 0 139 40.5t82 108.5t27 150t-27 150t-82 109t-139 41h-74.5h-49.5l18 26q-2 -7 -4 -22t-4 -35t-3 -41.5t-1 -39.5v-375q0 -30 2 -55t4.5 -43.5t2.5 -30.5zM46 332v42
h315l-4 -42h-311z" />
    <glyph glyph-name="Dcaron" unicode="&#x10e;" horiz-adv-x="761" 
d="M61 -5l-5 49l114 23l-40 -45q2 12 5.5 34.5t6.5 45.5t3 33v435q0 11 -3 32.5t-6 42.5t-5 29l39 -34l-112 18l5 52q19 -1 41.5 -2t43 -2t29.5 -1q33 0 58.5 1.5t51.5 2.5t60 1q111 0 188 -44t116.5 -124t39.5 -190q0 -105 -41.5 -185.5t-118.5 -125.5t-184 -45
q-37 0 -75.5 2t-76.5 2q-12 0 -35 -1t-49.5 -2t-49.5 -2zM240 36l-16 20q20 0 51.5 -1.5t73.5 -1.5q84 0 139 40.5t82 108.5t27 150t-27 150t-82 109t-139 41h-74.5h-49.5l18 26q-2 -7 -4 -22t-4 -35t-3 -41.5t-1 -39.5v-375q0 -30 2 -55t4.5 -43.5t2.5 -30.5zM194 878
l190 -86l-33 -39h-39l-140 90zM494 878l22 -35l-141 -90h-39l-33 39z" />
    <glyph glyph-name="Dcroat" unicode="&#x110;" horiz-adv-x="761" 
d="M61 -5l-5 49l114 23l-40 -45q2 12 5.5 34.5t6.5 45.5t3 33v435q0 11 -3 32.5t-6 42.5t-5 29l39 -34l-112 18l5 52q19 -1 41.5 -2t43 -2t29.5 -1q33 0 58.5 1.5t51.5 2.5t60 1q111 0 188 -44t116.5 -124t39.5 -190q0 -105 -41.5 -185.5t-118.5 -125.5t-184 -45
q-37 0 -75.5 2t-76.5 2q-12 0 -35 -1t-49.5 -2t-49.5 -2zM240 36l-16 20q20 0 51.5 -1.5t73.5 -1.5q84 0 139 40.5t82 108.5t27 150t-27 150t-82 109t-139 41h-74.5h-49.5l18 26q-2 -7 -4 -22t-4 -35t-3 -41.5t-1 -39.5v-375q0 -30 2 -55t4.5 -43.5t2.5 -30.5zM46 332v42
h315l-4 -42h-311z" />
    <glyph glyph-name="uni1E0C" unicode="&#x1e0c;" horiz-adv-x="761" 
d="M61 -5l-5 49l114 23l-40 -45q2 12 5.5 34.5t6.5 45.5t3 33v435q0 11 -3 32.5t-6 42.5t-5 29l39 -34l-112 18l5 52q19 -1 41.5 -2t43 -2t29.5 -1q33 0 58.5 1.5t51.5 2.5t60 1q111 0 188 -44t116.5 -124t39.5 -190q0 -105 -41.5 -185.5t-118.5 -125.5t-184 -45
q-37 0 -75.5 2t-76.5 2q-12 0 -35 -1t-49.5 -2t-49.5 -2zM240 36l-16 20q20 0 51.5 -1.5t73.5 -1.5q84 0 139 40.5t82 108.5t27 150t-27 150t-82 109t-139 41h-74.5h-49.5l18 26q-2 -7 -4 -22t-4 -35t-3 -41.5t-1 -39.5v-375q0 -30 2 -55t4.5 -43.5t2.5 -30.5zM343 -209
q-28 0 -43 17t-15 45q0 29 15 46.5t43 17.5t43 -16.5t15 -47.5q0 -28 -14.5 -45t-43.5 -17z" />
    <glyph glyph-name="uni1E0E" unicode="&#x1e0e;" horiz-adv-x="761" 
d="M61 -5l-5 49l114 23l-40 -45q2 12 5.5 34.5t6.5 45.5t3 33v435q0 11 -3 32.5t-6 42.5t-5 29l39 -34l-112 18l5 52q19 -1 41.5 -2t43 -2t29.5 -1q33 0 58.5 1.5t51.5 2.5t60 1q111 0 188 -44t116.5 -124t39.5 -190q0 -105 -41.5 -185.5t-118.5 -125.5t-184 -45
q-37 0 -75.5 2t-76.5 2q-12 0 -35 -1t-49.5 -2t-49.5 -2zM240 36l-16 20q20 0 51.5 -1.5t73.5 -1.5q84 0 139 40.5t82 108.5t27 150t-27 150t-82 109t-139 41h-74.5h-49.5l18 26q-2 -7 -4 -22t-4 -35t-3 -41.5t-1 -39.5v-375q0 -30 2 -55t4.5 -43.5t2.5 -30.5zM199 -105v42
h287l-4 -42h-283z" />
    <glyph glyph-name="uni01F2" unicode="&#x1f2;" horiz-adv-x="1234" 
d="M61 -5l-5 49l114 23l-40 -45q2 12 5.5 34.5t6.5 45.5t3 33v435q0 11 -3 32.5t-6 42.5t-5 29l39 -34l-112 18l5 52q19 -1 41.5 -2t43 -2t29.5 -1q33 0 58.5 1.5t51.5 2.5t60 1q111 0 188 -44t116.5 -124t39.5 -190q0 -105 -41.5 -185.5t-118.5 -125.5t-184 -45
q-37 0 -75.5 2t-76.5 2q-12 0 -35 -1t-49.5 -2t-49.5 -2zM240 36l-16 20q20 0 51.5 -1.5t73.5 -1.5q84 0 139 40.5t82 108.5t27 150t-27 150t-82 109t-139 41h-74.5h-49.5l18 26q-2 -7 -4 -22t-4 -35t-3 -41.5t-1 -39.5v-375q0 -30 2 -55t4.5 -43.5t2.5 -30.5zM1163 -3
q1 0 -13 0.5t-34.5 1t-38.5 1t-26 0.5h-238l-6 57q18 19 38 42t36.5 42t21.5 27l124 184q7 10 18.5 31t25 46t24.5 45l17 -29h-160q-8 0 -22.5 -1.5t-31 -3.5t-31.5 -4l46 35q-7 -16 -15.5 -35.5t-15 -36.5t-7.5 -24l-4 -37l-56 4l5 136l18 19q24 -1 51.5 -2t43.5 -1h238
l7 -57l-87 -110l-122 -185q-11 -17 -23 -37.5t-23.5 -42t-22.5 -42.5l-16 29h162q6 0 22 2t35 4t34 3l-46 -34q7 14 14.5 31t13.5 31.5t8 20.5l5 39l57 -6l-8 -124z" />
    <glyph glyph-name="uni01C5" unicode="&#x1c5;" horiz-adv-x="1235" 
d="M61 -5l-5 49l114 23l-40 -45q2 12 5.5 34.5t6.5 45.5t3 33v435q0 11 -3 32.5t-6 42.5t-5 29l39 -34l-112 18l5 52q19 -1 41.5 -2t43 -2t29.5 -1q33 0 58.5 1.5t51.5 2.5t60 1q111 0 188 -44t116.5 -124t39.5 -190q0 -105 -41.5 -185.5t-118.5 -125.5t-184 -45
q-37 0 -75.5 2t-76.5 2q-12 0 -35 -1t-49.5 -2t-49.5 -2zM240 36l-16 20q20 0 51.5 -1.5t73.5 -1.5q84 0 139 40.5t82 108.5t27 150t-27 150t-82 109t-139 41h-74.5h-49.5l18 26q-2 -7 -4 -22t-4 -35t-3 -41.5t-1 -39.5v-375q0 -30 2 -55t4.5 -43.5t2.5 -30.5zM1163 -3
q1 0 -13 0.5t-34.5 1t-38.5 1t-26 0.5h-238l-6 57q18 19 38 42t36.5 42t21.5 27l124 184q7 10 18.5 31t25 46t24.5 45l17 -29h-160q-8 0 -22.5 -1.5t-31 -3.5t-31.5 -4l46 35q-7 -16 -15.5 -35.5t-15 -36.5t-7.5 -24l-4 -37l-56 4l5 136l18 19q24 -1 51.5 -2t43.5 -1h238
l7 -57l-87 -110l-122 -185q-11 -17 -23 -37.5t-23.5 -42t-22.5 -42.5l-16 29h162q6 0 22 2t35 4t34 3l-46 -34q7 14 14.5 31t13.5 31.5t8 20.5l5 39l57 -6l-8 -124zM859 701l176 -130l-37 -29h-34l-135 131zM1123 701l30 -28l-134 -131h-35l-37 29z" />
    <glyph glyph-name="E" unicode="E" horiz-adv-x="628" 
d="M61 -5l-5 49l114 23l-40 -44q2 11 5.5 33.5t6.5 45.5t3 33v435q0 9 -2.5 28.5t-5.5 42t-6 41.5l39 -42l-112 18l5 52q19 -1 42 -2t43.5 -2t29.5 -1h223q9 0 29 0.5t43 2t42 2.5l19 -18l7 -130l-57 -5l-11 55q-1 8 -14 25t-24 27l33 -19q-15 2 -42.5 4t-54.5 2h-166l37 26
q-2 -23 -5 -50t-4.5 -50.5t-1.5 -36.5v-375q0 -25 2 -55t5 -56t6 -41l-41 42h181q30 0 59.5 4.5t42.5 7.5l-30 -24q11 14 23 30.5t14 26.5l15 68l54 -5l-15 -149l-19 -18q-19 1 -42.5 2t-43 1.5t-28.5 0.5h-219q-12 0 -35 -0.5t-49.5 -1.5t-49.5 -3zM420 266l-14 104l36 -41
q-11 2 -32.5 4.5t-44 4.5t-35.5 2h-127v54h147q21 0 49 4.5t38 5.5l-31 -40l14 105l44 -5v-84q0 -54 3 -108z" />
    <glyph glyph-name="Eacute" unicode="&#xc9;" horiz-adv-x="628" 
d="M61 -5l-5 49l114 23l-40 -44q2 11 5.5 33.5t6.5 45.5t3 33v435q0 9 -2.5 28.5t-5.5 42t-6 41.5l39 -42l-112 18l5 52q19 -1 42 -2t43.5 -2t29.5 -1h223q9 0 29 0.5t43 2t42 2.5l19 -18l7 -130l-57 -5l-11 55q-1 8 -14 25t-24 27l33 -19q-15 2 -42.5 4t-54.5 2h-166l37 26
q-2 -23 -5 -50t-4.5 -50.5t-1.5 -36.5v-375q0 -25 2 -55t5 -56t6 -41l-41 42h181q30 0 59.5 4.5t42.5 7.5l-30 -24q11 14 23 30.5t14 26.5l15 68l54 -5l-15 -149l-19 -18q-19 1 -42.5 2t-43 1.5t-28.5 0.5h-219q-12 0 -35 -0.5t-49.5 -1.5t-49.5 -3zM420 266l-14 104l36 -41
q-11 2 -32.5 4.5t-44 4.5t-35.5 2h-127v54h147q21 0 49 4.5t38 5.5l-31 -40l14 105l44 -5v-84q0 -54 3 -108zM230 753l-17 40l222 115l29 -62z" />
    <glyph glyph-name="Ebreve" unicode="&#x114;" horiz-adv-x="628" 
d="M61 -5l-5 49l114 23l-40 -44q2 11 5.5 33.5t6.5 45.5t3 33v435q0 9 -2.5 28.5t-5.5 42t-6 41.5l39 -42l-112 18l5 52q19 -1 42 -2t43.5 -2t29.5 -1h223q9 0 29 0.5t43 2t42 2.5l19 -18l7 -130l-57 -5l-11 55q-1 8 -14 25t-24 27l33 -19q-15 2 -42.5 4t-54.5 2h-166l37 26
q-2 -23 -5 -50t-4.5 -50.5t-1.5 -36.5v-375q0 -25 2 -55t5 -56t6 -41l-41 42h181q30 0 59.5 4.5t42.5 7.5l-30 -24q11 14 23 30.5t14 26.5l15 68l54 -5l-15 -149l-19 -18q-19 1 -42.5 2t-43 1.5t-28.5 0.5h-219q-12 0 -35 -0.5t-49.5 -1.5t-49.5 -3zM420 266l-14 104l36 -41
q-11 2 -32.5 4.5t-44 4.5t-35.5 2h-127v54h147q21 0 49 4.5t38 5.5l-31 -40l14 105l44 -5v-84q0 -54 3 -108zM173 870l37 12q17 -33 43.5 -49.5t54.5 -16.5q29 0 55.5 16.5t42.5 49.5l36 -12q-13 -58 -51.5 -87.5t-82.5 -29.5t-83 29.5t-52 87.5z" />
    <glyph glyph-name="Ecaron" unicode="&#x11a;" horiz-adv-x="628" 
d="M61 -5l-5 49l114 23l-40 -44q2 11 5.5 33.5t6.5 45.5t3 33v435q0 9 -2.5 28.5t-5.5 42t-6 41.5l39 -42l-112 18l5 52q19 -1 42 -2t43.5 -2t29.5 -1h223q9 0 29 0.5t43 2t42 2.5l19 -18l7 -130l-57 -5l-11 55q-1 8 -14 25t-24 27l33 -19q-15 2 -42.5 4t-54.5 2h-166l37 26
q-2 -23 -5 -50t-4.5 -50.5t-1.5 -36.5v-375q0 -25 2 -55t5 -56t6 -41l-41 42h181q30 0 59.5 4.5t42.5 7.5l-30 -24q11 14 23 30.5t14 26.5l15 68l54 -5l-15 -149l-19 -18q-19 1 -42.5 2t-43 1.5t-28.5 0.5h-219q-12 0 -35 -0.5t-49.5 -1.5t-49.5 -3zM420 266l-14 104l36 -41
q-11 2 -32.5 4.5t-44 4.5t-35.5 2h-127v54h147q21 0 49 4.5t38 5.5l-31 -40l14 105l44 -5v-84q0 -54 3 -108zM158 878l190 -86l-33 -39h-39l-140 90zM458 878l22 -35l-141 -90h-39l-33 39z" />
    <glyph glyph-name="uni1E1C" unicode="&#x1e1c;" horiz-adv-x="628" 
d="M61 -5l-5 49l114 23l-40 -44q2 11 5.5 33.5t6.5 45.5t3 33v435q0 9 -2.5 28.5t-5.5 42t-6 41.5l39 -42l-112 18l5 52q19 -1 42 -2t43.5 -2t29.5 -1h223q9 0 29 0.5t43 2t42 2.5l19 -18l7 -130l-57 -5l-11 55q-1 8 -14 25t-24 27l33 -19q-15 2 -42.5 4t-54.5 2h-166l37 26
q-2 -23 -5 -50t-4.5 -50.5t-1.5 -36.5v-375q0 -25 2 -55t5 -56t6 -41l-41 42h181q30 0 59.5 4.5t42.5 7.5l-30 -24q11 14 23 30.5t14 26.5l15 68l54 -5l-15 -149l-19 -18q-19 1 -42.5 2t-43 1.5t-28.5 0.5h-219q-12 0 -35 -0.5t-49.5 -1.5t-49.5 -3zM420 266l-14 104l36 -41
q-11 2 -32.5 4.5t-44 4.5t-35.5 2h-127v54h147q21 0 49 4.5t38 5.5l-31 -40l14 105l44 -5v-84q0 -54 3 -108zM252 -247l-7 35q41 2 70.5 20t27.5 41q-1 14 -16.5 23t-45.5 10l-9 6l27 129h42l-37 -114l-14 41q60 -10 83 -36.5t23 -53.5q0 -17 -10 -37.5t-30 -36.5
q-18 -13 -43.5 -20t-60.5 -7zM173 870l37 12q17 -33 43.5 -49.5t54.5 -16.5q29 0 55.5 16.5t42.5 49.5l36 -12q-13 -58 -51.5 -87.5t-82.5 -29.5t-83 29.5t-52 87.5z" />
    <glyph glyph-name="Ecircumflex" unicode="&#xca;" horiz-adv-x="628" 
d="M61 -5l-5 49l114 23l-40 -44q2 11 5.5 33.5t6.5 45.5t3 33v435q0 9 -2.5 28.5t-5.5 42t-6 41.5l39 -42l-112 18l5 52q19 -1 42 -2t43.5 -2t29.5 -1h223q9 0 29 0.5t43 2t42 2.5l19 -18l7 -130l-57 -5l-11 55q-1 8 -14 25t-24 27l33 -19q-15 2 -42.5 4t-54.5 2h-166l37 26
q-2 -23 -5 -50t-4.5 -50.5t-1.5 -36.5v-375q0 -25 2 -55t5 -56t6 -41l-41 42h181q30 0 59.5 4.5t42.5 7.5l-30 -24q11 14 23 30.5t14 26.5l15 68l54 -5l-15 -149l-19 -18q-19 1 -42.5 2t-43 1.5t-28.5 0.5h-219q-12 0 -35 -0.5t-49.5 -1.5t-49.5 -3zM420 266l-14 104l36 -41
q-11 2 -32.5 4.5t-44 4.5t-35.5 2h-127v54h147q21 0 49 4.5t38 5.5l-31 -40l14 105l44 -5v-84q0 -54 3 -108zM458 753l-190 86l33 39h39l140 -90zM158 753l-22 35l141 90h39l33 -39z" />
    <glyph glyph-name="uni1EBE" unicode="&#x1ebe;" horiz-adv-x="628" 
d="M61 -5l-5 49l114 23l-40 -44q2 11 5.5 33.5t6.5 45.5t3 33v435q0 9 -2.5 28.5t-5.5 42t-6 41.5l39 -42l-112 18l5 52q19 -1 42 -2t43.5 -2t29.5 -1h223q9 0 29 0.5t43 2t42 2.5l19 -18l7 -130l-57 -5l-11 55q-1 8 -14 25t-24 27l33 -19q-15 2 -42.5 4t-54.5 2h-166l37 26
q-2 -23 -5 -50t-4.5 -50.5t-1.5 -36.5v-375q0 -25 2 -55t5 -56t6 -41l-41 42h181q30 0 59.5 4.5t42.5 7.5l-30 -24q11 14 23 30.5t14 26.5l15 68l54 -5l-15 -149l-19 -18q-19 1 -42.5 2t-43 1.5t-28.5 0.5h-219q-12 0 -35 -0.5t-49.5 -1.5t-49.5 -3zM420 266l-14 104l36 -41
q-11 2 -32.5 4.5t-44 4.5t-35.5 2h-127v54h147q21 0 49 4.5t38 5.5l-31 -40l14 105l44 -5v-84q0 -54 3 -108zM440 748l-175 100l36 32h35l135 -102zM177 748l-30 30l134 102h35l37 -32zM236 880l-24 35l186 98l38 -55z" />
    <glyph glyph-name="uni1EC6" unicode="&#x1ec6;" horiz-adv-x="628" 
d="M61 -5l-5 49l114 23l-40 -44q2 11 5.5 33.5t6.5 45.5t3 33v435q0 9 -2.5 28.5t-5.5 42t-6 41.5l39 -42l-112 18l5 52q19 -1 42 -2t43.5 -2t29.5 -1h223q9 0 29 0.5t43 2t42 2.5l19 -18l7 -130l-57 -5l-11 55q-1 8 -14 25t-24 27l33 -19q-15 2 -42.5 4t-54.5 2h-166l37 26
q-2 -23 -5 -50t-4.5 -50.5t-1.5 -36.5v-375q0 -25 2 -55t5 -56t6 -41l-41 42h181q30 0 59.5 4.5t42.5 7.5l-30 -24q11 14 23 30.5t14 26.5l15 68l54 -5l-15 -149l-19 -18q-19 1 -42.5 2t-43 1.5t-28.5 0.5h-219q-12 0 -35 -0.5t-49.5 -1.5t-49.5 -3zM420 266l-14 104l36 -41
q-11 2 -32.5 4.5t-44 4.5t-35.5 2h-127v54h147q21 0 49 4.5t38 5.5l-31 -40l14 105l44 -5v-84q0 -54 3 -108zM458 753l-190 86l33 39h39l140 -90zM158 753l-22 35l141 90h39l33 -39zM320 -209q-28 0 -43 17t-15 45q0 29 15 46.5t43 17.5t43 -16.5t15 -47.5q0 -28 -14.5 -45
t-43.5 -17z" />
    <glyph glyph-name="uni1EC0" unicode="&#x1ec0;" horiz-adv-x="628" 
d="M61 -5l-5 49l114 23l-40 -44q2 11 5.5 33.5t6.5 45.5t3 33v435q0 9 -2.5 28.5t-5.5 42t-6 41.5l39 -42l-112 18l5 52q19 -1 42 -2t43.5 -2t29.5 -1h223q9 0 29 0.5t43 2t42 2.5l19 -18l7 -130l-57 -5l-11 55q-1 8 -14 25t-24 27l33 -19q-15 2 -42.5 4t-54.5 2h-166l37 26
q-2 -23 -5 -50t-4.5 -50.5t-1.5 -36.5v-375q0 -25 2 -55t5 -56t6 -41l-41 42h181q30 0 59.5 4.5t42.5 7.5l-30 -24q11 14 23 30.5t14 26.5l15 68l54 -5l-15 -149l-19 -18q-19 1 -42.5 2t-43 1.5t-28.5 0.5h-219q-12 0 -35 -0.5t-49.5 -1.5t-49.5 -3zM420 266l-14 104l36 -41
q-11 2 -32.5 4.5t-44 4.5t-35.5 2h-127v54h147q21 0 49 4.5t38 5.5l-31 -40l14 105l44 -5v-84q0 -54 3 -108zM436 748l-175 100l36 32h35l135 -102zM173 748l-30 30l134 102h35l37 -32zM380 892l-192 96l43 51l176 -114z" />
    <glyph glyph-name="uni1EC2" unicode="&#x1ec2;" horiz-adv-x="628" 
d="M61 -5l-5 49l114 23l-40 -44q2 11 5.5 33.5t6.5 45.5t3 33v435q0 9 -2.5 28.5t-5.5 42t-6 41.5l39 -42l-112 18l5 52q19 -1 42 -2t43.5 -2t29.5 -1h223q9 0 29 0.5t43 2t42 2.5l19 -18l7 -130l-57 -5l-11 55q-1 8 -14 25t-24 27l33 -19q-15 2 -42.5 4t-54.5 2h-166l37 26
q-2 -23 -5 -50t-4.5 -50.5t-1.5 -36.5v-375q0 -25 2 -55t5 -56t6 -41l-41 42h181q30 0 59.5 4.5t42.5 7.5l-30 -24q11 14 23 30.5t14 26.5l15 68l54 -5l-15 -149l-19 -18q-19 1 -42.5 2t-43 1.5t-28.5 0.5h-219q-12 0 -35 -0.5t-49.5 -1.5t-49.5 -3zM420 266l-14 104l36 -41
q-11 2 -32.5 4.5t-44 4.5t-35.5 2h-127v54h147q21 0 49 4.5t38 5.5l-31 -40l14 105l44 -5v-84q0 -54 3 -108zM439 748l-175 100l36 32h35l135 -102zM176 748l-30 30l134 102h35l37 -32zM309 899q-31 0 -37 13t-6 21q0 15 10.5 23t24 14t24 13.5t10.5 19.5q0 9 -8.5 14.5
t-27.5 5.5q-10 0 -22 -2.5t-22 -4.5l-16 39q4 2 25.5 7.5t47.5 5.5q32 0 60 -16t28 -48q0 -18 -10.5 -29.5t-25 -19t-25 -14t-10.5 -15.5q0 -11 6 -21q-3 -2 -10 -4t-16 -2z" />
    <glyph glyph-name="uni1EC4" unicode="&#x1ec4;" horiz-adv-x="628" 
d="M61 -5l-5 49l114 23l-40 -44q2 11 5.5 33.5t6.5 45.5t3 33v435q0 9 -2.5 28.5t-5.5 42t-6 41.5l39 -42l-112 18l5 52q19 -1 42 -2t43.5 -2t29.5 -1h223q9 0 29 0.5t43 2t42 2.5l19 -18l7 -130l-57 -5l-11 55q-1 8 -14 25t-24 27l33 -19q-15 2 -42.5 4t-54.5 2h-166l37 26
q-2 -23 -5 -50t-4.5 -50.5t-1.5 -36.5v-375q0 -25 2 -55t5 -56t6 -41l-41 42h181q30 0 59.5 4.5t42.5 7.5l-30 -24q11 14 23 30.5t14 26.5l15 68l54 -5l-15 -149l-19 -18q-19 1 -42.5 2t-43 1.5t-28.5 0.5h-219q-12 0 -35 -0.5t-49.5 -1.5t-49.5 -3zM420 266l-14 104l36 -41
q-11 2 -32.5 4.5t-44 4.5t-35.5 2h-127v54h147q21 0 49 4.5t38 5.5l-31 -40l14 105l44 -5v-84q0 -54 3 -108zM452 748l-175 100l36 32h35l135 -102zM189 748l-30 30l134 102h35l37 -32zM194 882l-30 18q9 20 21.5 42t27 37t27.5 15q18 0 44.5 -10t53.5 -20t45 -10
q15 0 29.5 16t22.5 32l29 -17q-1 -3 -8 -17.5t-17.5 -31t-23.5 -29t-26 -12.5q-18 0 -44.5 10l-53 20t-44.5 10q-15 0 -30 -18t-23 -35z" />
    <glyph glyph-name="uni0204" unicode="&#x204;" horiz-adv-x="628" 
d="M61 -5l-5 49l114 23l-40 -44q2 11 5.5 33.5t6.5 45.5t3 33v435q0 9 -2.5 28.5t-5.5 42t-6 41.5l39 -42l-112 18l5 52q19 -1 42 -2t43.5 -2t29.5 -1h223q9 0 29 0.5t43 2t42 2.5l19 -18l7 -130l-57 -5l-11 55q-1 8 -14 25t-24 27l33 -19q-15 2 -42.5 4t-54.5 2h-166l37 26
q-2 -23 -5 -50t-4.5 -50.5t-1.5 -36.5v-375q0 -25 2 -55t5 -56t6 -41l-41 42h181q30 0 59.5 4.5t42.5 7.5l-30 -24q11 14 23 30.5t14 26.5l15 68l54 -5l-15 -149l-19 -18q-19 1 -42.5 2t-43 1.5t-28.5 0.5h-219q-12 0 -35 -0.5t-49.5 -1.5t-49.5 -3zM420 266l-14 104l36 -41
q-11 2 -32.5 4.5t-44 4.5t-35.5 2h-127v54h147q21 0 49 4.5t38 5.5l-31 -40l14 105l44 -5v-84q0 -54 3 -108zM439 753l-205 148l44 52l187 -165zM316 753l-227 111l34 60l214 -132z" />
    <glyph glyph-name="Edieresis" unicode="&#xcb;" horiz-adv-x="628" 
d="M61 -5l-5 49l114 23l-40 -44q2 11 5.5 33.5t6.5 45.5t3 33v435q0 9 -2.5 28.5t-5.5 42t-6 41.5l39 -42l-112 18l5 52q19 -1 42 -2t43.5 -2t29.5 -1h223q9 0 29 0.5t43 2t42 2.5l19 -18l7 -130l-57 -5l-11 55q-1 8 -14 25t-24 27l33 -19q-15 2 -42.5 4t-54.5 2h-166l37 26
q-2 -23 -5 -50t-4.5 -50.5t-1.5 -36.5v-375q0 -25 2 -55t5 -56t6 -41l-41 42h181q30 0 59.5 4.5t42.5 7.5l-30 -24q11 14 23 30.5t14 26.5l15 68l54 -5l-15 -149l-19 -18q-19 1 -42.5 2t-43 1.5t-28.5 0.5h-219q-12 0 -35 -0.5t-49.5 -1.5t-49.5 -3zM420 266l-14 104l36 -41
q-11 2 -32.5 4.5t-44 4.5t-35.5 2h-127v54h147q21 0 49 4.5t38 5.5l-31 -40l14 105l44 -5v-84q0 -54 3 -108zM399 753q-26 0 -40.5 15t-14.5 42q0 25 15 40t40 15t39.5 -14t14.5 -41t-14 -42t-40 -15zM218 753q-26 0 -40.5 15t-14.5 42q0 25 15 40t40 15q24 0 39 -14t15 -41
t-14.5 -42t-39.5 -15z" />
    <glyph glyph-name="Edotaccent" unicode="&#x116;" horiz-adv-x="628" 
d="M61 -5l-5 49l114 23l-40 -44q2 11 5.5 33.5t6.5 45.5t3 33v435q0 9 -2.5 28.5t-5.5 42t-6 41.5l39 -42l-112 18l5 52q19 -1 42 -2t43.5 -2t29.5 -1h223q9 0 29 0.5t43 2t42 2.5l19 -18l7 -130l-57 -5l-11 55q-1 8 -14 25t-24 27l33 -19q-15 2 -42.5 4t-54.5 2h-166l37 26
q-2 -23 -5 -50t-4.5 -50.5t-1.5 -36.5v-375q0 -25 2 -55t5 -56t6 -41l-41 42h181q30 0 59.5 4.5t42.5 7.5l-30 -24q11 14 23 30.5t14 26.5l15 68l54 -5l-15 -149l-19 -18q-19 1 -42.5 2t-43 1.5t-28.5 0.5h-219q-12 0 -35 -0.5t-49.5 -1.5t-49.5 -3zM420 266l-14 104l36 -41
q-11 2 -32.5 4.5t-44 4.5t-35.5 2h-127v54h147q21 0 49 4.5t38 5.5l-31 -40l14 105l44 -5v-84q0 -54 3 -108zM308 754q-28 0 -43 17t-15 45q0 29 15 46.5t43 17.5t43 -16.5t15 -47.5q0 -28 -14.5 -45t-43.5 -17z" />
    <glyph glyph-name="uni1EB8" unicode="&#x1eb8;" horiz-adv-x="628" 
d="M61 -5l-5 49l114 23l-40 -44q2 11 5.5 33.5t6.5 45.5t3 33v435q0 9 -2.5 28.5t-5.5 42t-6 41.5l39 -42l-112 18l5 52q19 -1 42 -2t43.5 -2t29.5 -1h223q9 0 29 0.5t43 2t42 2.5l19 -18l7 -130l-57 -5l-11 55q-1 8 -14 25t-24 27l33 -19q-15 2 -42.5 4t-54.5 2h-166l37 26
q-2 -23 -5 -50t-4.5 -50.5t-1.5 -36.5v-375q0 -25 2 -55t5 -56t6 -41l-41 42h181q30 0 59.5 4.5t42.5 7.5l-30 -24q11 14 23 30.5t14 26.5l15 68l54 -5l-15 -149l-19 -18q-19 1 -42.5 2t-43 1.5t-28.5 0.5h-219q-12 0 -35 -0.5t-49.5 -1.5t-49.5 -3zM420 266l-14 104l36 -41
q-11 2 -32.5 4.5t-44 4.5t-35.5 2h-127v54h147q21 0 49 4.5t38 5.5l-31 -40l14 105l44 -5v-84q0 -54 3 -108zM320 -209q-28 0 -43 17t-15 45q0 29 15 46.5t43 17.5t43 -16.5t15 -47.5q0 -28 -14.5 -45t-43.5 -17z" />
    <glyph glyph-name="Egrave" unicode="&#xc8;" horiz-adv-x="628" 
d="M61 -5l-5 49l114 23l-40 -44q2 11 5.5 33.5t6.5 45.5t3 33v435q0 9 -2.5 28.5t-5.5 42t-6 41.5l39 -42l-112 18l5 52q19 -1 42 -2t43.5 -2t29.5 -1h223q9 0 29 0.5t43 2t42 2.5l19 -18l7 -130l-57 -5l-11 55q-1 8 -14 25t-24 27l33 -19q-15 2 -42.5 4t-54.5 2h-166l37 26
q-2 -23 -5 -50t-4.5 -50.5t-1.5 -36.5v-375q0 -25 2 -55t5 -56t6 -41l-41 42h181q30 0 59.5 4.5t42.5 7.5l-30 -24q11 14 23 30.5t14 26.5l15 68l54 -5l-15 -149l-19 -18q-19 1 -42.5 2t-43 1.5t-28.5 0.5h-219q-12 0 -35 -0.5t-49.5 -1.5t-49.5 -3zM420 266l-14 104l36 -41
q-11 2 -32.5 4.5t-44 4.5t-35.5 2h-127v54h147q21 0 49 4.5t38 5.5l-31 -40l14 105l44 -5v-84q0 -54 3 -108zM403 753l-234 93l29 62l222 -115z" />
    <glyph glyph-name="uni1EBA" unicode="&#x1eba;" horiz-adv-x="628" 
d="M61 -5l-5 49l114 23l-40 -44q2 11 5.5 33.5t6.5 45.5t3 33v435q0 9 -2.5 28.5t-5.5 42t-6 41.5l39 -42l-112 18l5 52q19 -1 42 -2t43.5 -2t29.5 -1h223q9 0 29 0.5t43 2t42 2.5l19 -18l7 -130l-57 -5l-11 55q-1 8 -14 25t-24 27l33 -19q-15 2 -42.5 4t-54.5 2h-166l37 26
q-2 -23 -5 -50t-4.5 -50.5t-1.5 -36.5v-375q0 -25 2 -55t5 -56t6 -41l-41 42h181q30 0 59.5 4.5t42.5 7.5l-30 -24q11 14 23 30.5t14 26.5l15 68l54 -5l-15 -149l-19 -18q-19 1 -42.5 2t-43 1.5t-28.5 0.5h-219q-12 0 -35 -0.5t-49.5 -1.5t-49.5 -3zM420 266l-14 104l36 -41
q-11 2 -32.5 4.5t-44 4.5t-35.5 2h-127v54h147q21 0 49 4.5t38 5.5l-31 -40l14 105l44 -5v-84q0 -54 3 -108zM301 753q-20 0 -29.5 10.5t-9.5 20.5q0 17 9 26t21 14.5t21 11.5t9 16q0 11 -8 15.5t-20 4.5t-24 -3.5t-23 -8.5l-16 39q15 5 29.5 8.5t40.5 3.5q42 0 63.5 -14.5
t21.5 -34.5q0 -18 -10 -29.5t-22.5 -20t-22.5 -17t-10 -19.5q0 -9 6 -17q-4 -2 -11 -4t-15 -2z" />
    <glyph glyph-name="uni0206" unicode="&#x206;" horiz-adv-x="628" 
d="M61 -5l-5 49l114 23l-40 -44q2 11 5.5 33.5t6.5 45.5t3 33v435q0 9 -2.5 28.5t-5.5 42t-6 41.5l39 -42l-112 18l5 52q19 -1 42 -2t43.5 -2t29.5 -1h223q9 0 29 0.5t43 2t42 2.5l19 -18l7 -130l-57 -5l-11 55q-1 8 -14 25t-24 27l33 -19q-15 2 -42.5 4t-54.5 2h-166l37 26
q-2 -23 -5 -50t-4.5 -50.5t-1.5 -36.5v-375q0 -25 2 -55t5 -56t6 -41l-41 42h181q30 0 59.5 4.5t42.5 7.5l-30 -24q11 14 23 30.5t14 26.5l15 68l54 -5l-15 -149l-19 -18q-19 1 -42.5 2t-43 1.5t-28.5 0.5h-219q-12 0 -35 -0.5t-49.5 -1.5t-49.5 -3zM420 266l-14 104l36 -41
q-11 2 -32.5 4.5t-44 4.5t-35.5 2h-127v54h147q21 0 49 4.5t38 5.5l-31 -40l14 105l44 -5v-84q0 -54 3 -108zM443 764l-37 -12q-16 33 -42.5 49.5t-55.5 16.5q-28 0 -54.5 -16.5t-43.5 -49.5l-36 12q13 59 52 88t82 29q44 0 83 -29t52 -88z" />
    <glyph glyph-name="Emacron" unicode="&#x112;" horiz-adv-x="628" 
d="M61 -5l-5 49l114 23l-40 -44q2 11 5.5 33.5t6.5 45.5t3 33v435q0 9 -2.5 28.5t-5.5 42t-6 41.5l39 -42l-112 18l5 52q19 -1 42 -2t43.5 -2t29.5 -1h223q9 0 29 0.5t43 2t42 2.5l19 -18l7 -130l-57 -5l-11 55q-1 8 -14 25t-24 27l33 -19q-15 2 -42.5 4t-54.5 2h-166l37 26
q-2 -23 -5 -50t-4.5 -50.5t-1.5 -36.5v-375q0 -25 2 -55t5 -56t6 -41l-41 42h181q30 0 59.5 4.5t42.5 7.5l-30 -24q11 14 23 30.5t14 26.5l15 68l54 -5l-15 -149l-19 -18q-19 1 -42.5 2t-43 1.5t-28.5 0.5h-219q-12 0 -35 -0.5t-49.5 -1.5t-49.5 -3zM420 266l-14 104l36 -41
q-11 2 -32.5 4.5t-44 4.5t-35.5 2h-127v54h147q21 0 49 4.5t38 5.5l-31 -40l14 105l44 -5v-84q0 -54 3 -108zM148 753v54h320l-5 -54h-315z" />
    <glyph glyph-name="uni1E16" unicode="&#x1e16;" horiz-adv-x="628" 
d="M61 -5l-5 49l114 23l-40 -44q2 11 5.5 33.5t6.5 45.5t3 33v435q0 9 -2.5 28.5t-5.5 42t-6 41.5l39 -42l-112 18l5 52q19 -1 42 -2t43.5 -2t29.5 -1h223q9 0 29 0.5t43 2t42 2.5l19 -18l7 -130l-57 -5l-11 55q-1 8 -14 25t-24 27l33 -19q-15 2 -42.5 4t-54.5 2h-166l37 26
q-2 -23 -5 -50t-4.5 -50.5t-1.5 -36.5v-375q0 -25 2 -55t5 -56t6 -41l-41 42h181q30 0 59.5 4.5t42.5 7.5l-30 -24q11 14 23 30.5t14 26.5l15 68l54 -5l-15 -149l-19 -18q-19 1 -42.5 2t-43 1.5t-28.5 0.5h-219q-12 0 -35 -0.5t-49.5 -1.5t-49.5 -3zM420 266l-14 104l36 -41
q-11 2 -32.5 4.5t-44 4.5t-35.5 2h-127v54h147q21 0 49 4.5t38 5.5l-31 -40l14 105l44 -5v-84q0 -54 3 -108zM149 753v54h300l-5 -54h-295zM237 834l-24 35l186 98l38 -55z" />
    <glyph glyph-name="uni1E14" unicode="&#x1e14;" horiz-adv-x="628" 
d="M61 -5l-5 49l114 23l-40 -44q2 11 5.5 33.5t6.5 45.5t3 33v435q0 9 -2.5 28.5t-5.5 42t-6 41.5l39 -42l-112 18l5 52q19 -1 42 -2t43.5 -2t29.5 -1h223q9 0 29 0.5t43 2t42 2.5l19 -18l7 -130l-57 -5l-11 55q-1 8 -14 25t-24 27l33 -19q-15 2 -42.5 4t-54.5 2h-166l37 26
q-2 -23 -5 -50t-4.5 -50.5t-1.5 -36.5v-375q0 -25 2 -55t5 -56t6 -41l-41 42h181q30 0 59.5 4.5t42.5 7.5l-30 -24q11 14 23 30.5t14 26.5l15 68l54 -5l-15 -149l-19 -18q-19 1 -42.5 2t-43 1.5t-28.5 0.5h-219q-12 0 -35 -0.5t-49.5 -1.5t-49.5 -3zM420 266l-14 104l36 -41
q-11 2 -32.5 4.5t-44 4.5t-35.5 2h-127v54h147q21 0 49 4.5t38 5.5l-31 -40l14 105l44 -5v-84q0 -54 3 -108zM164 753v54h300l-5 -54h-295zM353 819l-192 96l43 51l176 -114z" />
    <glyph glyph-name="Eogonek" unicode="&#x118;" horiz-adv-x="628" 
d="M61 -5l-5 49l114 23l-40 -44q2 11 5.5 33.5t6.5 45.5t3 33v435q0 9 -2.5 28.5t-5.5 42t-6 41.5l39 -42l-112 18l5 52q19 -1 42 -2t43.5 -2t29.5 -1h223q9 0 29 0.5t43 2t42 2.5l19 -18l7 -130l-57 -5l-11 55q-1 8 -14 25t-24 27l33 -19q-15 2 -42.5 4t-54.5 2h-166l37 26
q-2 -23 -5 -50t-4.5 -50.5t-1.5 -36.5v-375q0 -25 2 -55t5 -56t6 -41l-41 42h181q30 0 59.5 4.5t42.5 7.5l-30 -24q11 14 23 30.5t14 26.5l15 68l54 -5l-15 -149l-19 -18q-19 1 -42.5 2t-43 1.5t-28.5 0.5h-219q-12 0 -35 -0.5t-49.5 -1.5t-49.5 -3zM420 266l-14 104l36 -41
q-11 2 -32.5 4.5t-44 4.5t-35.5 2h-127v54h147q21 0 49 4.5t38 5.5l-31 -40l14 105l44 -5v-84q0 -54 3 -108zM471 -214q-25 0 -52 8t-45.5 28t-18.5 55q0 33 23.5 65.5t84.5 62.5l65 -9q-47 -19 -74 -53t-27 -62q0 -19 14.5 -32.5t45.5 -13.5q8 0 17 1.5t17 3.5l11 -43
q-13 -5 -29.5 -8t-31.5 -3z" />
    <glyph glyph-name="uni1EBC" unicode="&#x1ebc;" horiz-adv-x="628" 
d="M61 -5l-5 49l114 23l-40 -44q2 11 5.5 33.5t6.5 45.5t3 33v435q0 9 -2.5 28.5t-5.5 42t-6 41.5l39 -42l-112 18l5 52q19 -1 42 -2t43.5 -2t29.5 -1h223q9 0 29 0.5t43 2t42 2.5l19 -18l7 -130l-57 -5l-11 55q-1 8 -14 25t-24 27l33 -19q-15 2 -42.5 4t-54.5 2h-166l37 26
q-2 -23 -5 -50t-4.5 -50.5t-1.5 -36.5v-375q0 -25 2 -55t5 -56t6 -41l-41 42h181q30 0 59.5 4.5t42.5 7.5l-30 -24q11 14 23 30.5t14 26.5l15 68l54 -5l-15 -149l-19 -18q-19 1 -42.5 2t-43 1.5t-28.5 0.5h-219q-12 0 -35 -0.5t-49.5 -1.5t-49.5 -3zM420 266l-14 104l36 -41
q-11 2 -32.5 4.5t-44 4.5t-35.5 2h-127v54h147q21 0 49 4.5t38 5.5l-31 -40l14 105l44 -5v-84q0 -54 3 -108zM176 748l-35 21q9 22 22.5 45t29.5 39t30 16q15 0 36.5 -6t45 -14.5t45 -14.5t36.5 -6t30 18t24 34l35 -20q-9 -21 -23 -43.5t-29.5 -38.5t-30.5 -16t-36.5 6
t-45 14.5t-44.5 14.5t-36 6t-30.5 -18.5t-23.5 -36.5z" />
    <glyph glyph-name="F" unicode="F" horiz-adv-x="596" 
d="M61 -5l-5 49l114 23l-41 -48q3 16 7 39t6.5 44.5t2.5 32.5v435q0 11 -2.5 32t-6 42.5t-6.5 32.5l40 -37l-112 18l5 52q19 -1 42 -2t43.5 -2t29.5 -1h223q10 0 34 1t48 2.5t32 1.5l19 -18l7 -129l-57 -5q-1 12 -4.5 27t-6.5 26q-1 8 -14.5 26.5t-24.5 28.5l34 -21
q-15 1 -43 3.5t-54 2.5h-166l37 29q0 -3 -3 -27.5t-5.5 -56.5t-2.5 -56v-375q0 -26 2 -55t5 -53t5 -34l-39 40l135 -10l-8 -53h-136q-12 0 -34.5 -1t-48.5 -2t-51 -2zM420 258l-13 97l37 -33q-8 2 -30.5 4t-46.5 4t-37 2h-131v54h151q22 0 49 6t40 10l-32 -36l13 95l44 -5
v-84q0 -27 1 -58t2 -50z" />
    <glyph glyph-name="uni0191" unicode="&#x191;" horiz-adv-x="584" 
d="M12 -194l1 50q71 0 95.5 38.5t24.5 107.5v568q0 11 -2.5 32t-6 42.5t-6.5 32.5l40 -37l-112 18l5 52q19 -1 42 -2t43.5 -2t29.5 -1h223q10 0 34 1t48 2.5t32 1.5l19 -18l7 -129l-57 -5q-1 12 -4.5 27t-6.5 26q-1 8 -14.5 26.5t-24.5 28.5l34 -21q-15 1 -43 3.5t-54 2.5
h-166l37 29q0 -3 -3 -27.5t-5.5 -56.5t-2.5 -56v-543q0 -53 -24.5 -96.5t-70.5 -69t-112 -25.5zM408 258l-13 97l37 -33q-8 2 -30.5 4t-46.5 4t-37 2h-131v54h151q22 0 49 6t40 10l-32 -36l13 95l44 -5v-84q0 -27 1 -58t2 -50z" />
    <glyph glyph-name="G" unicode="G" horiz-adv-x="723" 
d="M403 -15q-109 0 -183 46.5t-111 129t-37 191.5t37 192t111 129.5t183 46.5q65 0 117 -11t103 -23l-10 -146l-58 4v46q0 11 -7.5 35.5t-12.5 40.5l28 -32q-34 12 -79.5 21.5t-83.5 9.5q-78 0 -130 -41.5t-77.5 -112t-25.5 -158.5q0 -87 26 -158t77.5 -113t129.5 -42
q35 0 81.5 8t82.5 20l-26 -32q5 23 11.5 52t6.5 40v68q0 13 -2 33t-4.5 39t-4.5 30l35 -33l-140 11l5 55h111q10 0 30 1t37 2l18 -17q-2 -25 -4 -52.5t-3.5 -53.5t-1.5 -47v-145q-50 -12 -107 -23t-122 -11z" />
    <glyph glyph-name="uni01F4" unicode="&#x1f4;" horiz-adv-x="723" 
d="M403 -15q-109 0 -183 46.5t-111 129t-37 191.5t37 192t111 129.5t183 46.5q65 0 117 -11t103 -23l-10 -146l-58 4v46q0 11 -7.5 35.5t-12.5 40.5l28 -32q-34 12 -79.5 21.5t-83.5 9.5q-78 0 -130 -41.5t-77.5 -112t-25.5 -158.5q0 -87 26 -158t77.5 -113t129.5 -42
q35 0 81.5 8t82.5 20l-26 -32q5 23 11.5 52t6.5 40v68q0 13 -2 33t-4.5 39t-4.5 30l35 -33l-140 11l5 55h111q10 0 30 1t37 2l18 -17q-2 -25 -4 -52.5t-3.5 -53.5t-1.5 -47v-145q-50 -12 -107 -23t-122 -11zM340 753l-17 40l222 115l29 -62z" />
    <glyph glyph-name="Gbreve" unicode="&#x11e;" horiz-adv-x="723" 
d="M403 -15q-109 0 -183 46.5t-111 129t-37 191.5t37 192t111 129.5t183 46.5q65 0 117 -11t103 -23l-10 -146l-58 4v46q0 11 -7.5 35.5t-12.5 40.5l28 -32q-34 12 -79.5 21.5t-83.5 9.5q-78 0 -130 -41.5t-77.5 -112t-25.5 -158.5q0 -87 26 -158t77.5 -113t129.5 -42
q35 0 81.5 8t82.5 20l-26 -32q5 23 11.5 52t6.5 40v68q0 13 -2 33t-4.5 39t-4.5 30l35 -33l-140 11l5 55h111q10 0 30 1t37 2l18 -17q-2 -25 -4 -52.5t-3.5 -53.5t-1.5 -47v-145q-50 -12 -107 -23t-122 -11zM283 870l37 12q17 -33 43.5 -49.5t54.5 -16.5q29 0 55.5 16.5
t42.5 49.5l36 -12q-13 -58 -51.5 -87.5t-82.5 -29.5t-83 29.5t-52 87.5z" />
    <glyph glyph-name="Gcaron" unicode="&#x1e6;" horiz-adv-x="723" 
d="M403 -15q-109 0 -183 46.5t-111 129t-37 191.5t37 192t111 129.5t183 46.5q65 0 117 -11t103 -23l-10 -146l-58 4v46q0 11 -7.5 35.5t-12.5 40.5l28 -32q-34 12 -79.5 21.5t-83.5 9.5q-78 0 -130 -41.5t-77.5 -112t-25.5 -158.5q0 -87 26 -158t77.5 -113t129.5 -42
q35 0 81.5 8t82.5 20l-26 -32q5 23 11.5 52t6.5 40v68q0 13 -2 33t-4.5 39t-4.5 30l35 -33l-140 11l5 55h111q10 0 30 1t37 2l18 -17q-2 -25 -4 -52.5t-3.5 -53.5t-1.5 -47v-145q-50 -12 -107 -23t-122 -11zM268 878l190 -86l-33 -39h-39l-140 90zM568 878l22 -35l-141 -90
h-39l-33 39z" />
    <glyph glyph-name="Gcircumflex" unicode="&#x11c;" horiz-adv-x="723" 
d="M403 -15q-109 0 -183 46.5t-111 129t-37 191.5t37 192t111 129.5t183 46.5q65 0 117 -11t103 -23l-10 -146l-58 4v46q0 11 -7.5 35.5t-12.5 40.5l28 -32q-34 12 -79.5 21.5t-83.5 9.5q-78 0 -130 -41.5t-77.5 -112t-25.5 -158.5q0 -87 26 -158t77.5 -113t129.5 -42
q35 0 81.5 8t82.5 20l-26 -32q5 23 11.5 52t6.5 40v68q0 13 -2 33t-4.5 39t-4.5 30l35 -33l-140 11l5 55h111q10 0 30 1t37 2l18 -17q-2 -25 -4 -52.5t-3.5 -53.5t-1.5 -47v-145q-50 -12 -107 -23t-122 -11zM568 753l-190 86l33 39h39l140 -90zM268 753l-22 35l141 90h39
l33 -39z" />
    <glyph glyph-name="uni0122" unicode="&#x122;" horiz-adv-x="723" 
d="M403 -15q-109 0 -183 46.5t-111 129t-37 191.5t37 192t111 129.5t183 46.5q65 0 117 -11t103 -23l-10 -146l-58 4v46q0 11 -7.5 35.5t-12.5 40.5l28 -32q-34 12 -79.5 21.5t-83.5 9.5q-78 0 -130 -41.5t-77.5 -112t-25.5 -158.5q0 -87 26 -158t77.5 -113t129.5 -42
q35 0 81.5 8t82.5 20l-26 -32q5 23 11.5 52t6.5 40v68q0 13 -2 33t-4.5 39t-4.5 30l35 -33l-140 11l5 55h111q10 0 30 1t37 2l18 -17q-2 -25 -4 -52.5t-3.5 -53.5t-1.5 -47v-145q-50 -12 -107 -23t-122 -11zM424 -248l-36 12q3 11 7.5 31t6.5 39.5t-5 27.5l27 -23
q-8 0 -20.5 4t-22.5 16.5t-10 35.5q0 29 15.5 42t32.5 13q51 0 51 -63q0 -20 -7.5 -45t-18 -49t-20.5 -41z" />
    <glyph glyph-name="Gdieresis" horiz-adv-x="723" 
d="M403 -15q-109 0 -183 46.5t-111 129t-37 191.5t37 192t111 129.5t183 46.5q65 0 117 -11t103 -23l-10 -146l-58 4v46q0 11 -7.5 35.5t-12.5 40.5l28 -32q-34 12 -79.5 21.5t-83.5 9.5q-78 0 -130 -41.5t-77.5 -112t-25.5 -158.5q0 -87 26 -158t77.5 -113t129.5 -42
q35 0 81.5 8t82.5 20l-26 -32q5 23 11.5 52t6.5 40v68q0 13 -2 33t-4.5 39t-4.5 30l35 -33l-140 11l5 55h111q10 0 30 1t37 2l18 -17q-2 -25 -4 -52.5t-3.5 -53.5t-1.5 -47v-145q-50 -12 -107 -23t-122 -11zM509 753q-26 0 -40.5 15t-14.5 42q0 25 15 40t40 15t39.5 -14
t14.5 -41t-14 -42t-40 -15zM328 753q-26 0 -40.5 15t-14.5 42q0 25 15 40t40 15q24 0 39 -14t15 -41t-14.5 -42t-39.5 -15z" />
    <glyph glyph-name="Gdotaccent" unicode="&#x120;" horiz-adv-x="723" 
d="M403 -15q-109 0 -183 46.5t-111 129t-37 191.5t37 192t111 129.5t183 46.5q65 0 117 -11t103 -23l-10 -146l-58 4v46q0 11 -7.5 35.5t-12.5 40.5l28 -32q-34 12 -79.5 21.5t-83.5 9.5q-78 0 -130 -41.5t-77.5 -112t-25.5 -158.5q0 -87 26 -158t77.5 -113t129.5 -42
q35 0 81.5 8t82.5 20l-26 -32q5 23 11.5 52t6.5 40v68q0 13 -2 33t-4.5 39t-4.5 30l35 -33l-140 11l5 55h111q10 0 30 1t37 2l18 -17q-2 -25 -4 -52.5t-3.5 -53.5t-1.5 -47v-145q-50 -12 -107 -23t-122 -11zM418 754q-28 0 -43 17t-15 45q0 29 15 46.5t43 17.5t43 -16.5
t15 -47.5q0 -28 -14.5 -45t-43.5 -17z" />
    <glyph glyph-name="uni1E20" unicode="&#x1e20;" horiz-adv-x="723" 
d="M403 -15q-109 0 -183 46.5t-111 129t-37 191.5t37 192t111 129.5t183 46.5q65 0 117 -11t103 -23l-10 -146l-58 4v46q0 11 -7.5 35.5t-12.5 40.5l28 -32q-34 12 -79.5 21.5t-83.5 9.5q-78 0 -130 -41.5t-77.5 -112t-25.5 -158.5q0 -87 26 -158t77.5 -113t129.5 -42
q35 0 81.5 8t82.5 20l-26 -32q5 23 11.5 52t6.5 40v68q0 13 -2 33t-4.5 39t-4.5 30l35 -33l-140 11l5 55h111q10 0 30 1t37 2l18 -17q-2 -25 -4 -52.5t-3.5 -53.5t-1.5 -47v-145q-50 -12 -107 -23t-122 -11zM258 753v54h320l-5 -54h-315z" />
    <glyph glyph-name="uni01E4" unicode="&#x1e4;" horiz-adv-x="757" 
d="M403 -15q-109 0 -183 46.5t-111 129t-37 191.5t37 192t111 129.5t183 46.5q65 0 117 -11t103 -23l-10 -146l-58 4v46q0 11 -7.5 35.5t-12.5 40.5l28 -32q-34 12 -79.5 21.5t-83.5 9.5q-78 0 -130 -41.5t-77.5 -112t-25.5 -158.5q0 -87 26 -158t77.5 -113t129.5 -42
q35 0 81.5 8t82.5 20l-26 -32q5 23 11.5 52t6.5 40v66q0 13 -2 33t-4.5 39t-4.5 30l35 -33l-140 11l5 55h111q10 0 30 1t37 2l18 -17q-2 -25 -4 -52.5t-3.5 -53.5t-1.5 -47v-143q-50 -12 -107 -23t-122 -11zM394 159v42h315l-4 -42h-311z" />
    <glyph glyph-name="Gtilde" horiz-adv-x="723" 
d="M403 -15q-109 0 -183 46.5t-111 129t-37 191.5t37 192t111 129.5t183 46.5q65 0 117 -11t103 -23l-10 -146l-58 4v46q0 11 -7.5 35.5t-12.5 40.5l28 -32q-34 12 -79.5 21.5t-83.5 9.5q-78 0 -130 -41.5t-77.5 -112t-25.5 -158.5q0 -87 26 -158t77.5 -113t129.5 -42
q35 0 81.5 8t82.5 20l-26 -32q5 23 11.5 52t6.5 40v68q0 13 -2 33t-4.5 39t-4.5 30l35 -33l-140 11l5 55h111q10 0 30 1t37 2l18 -17q-2 -25 -4 -52.5t-3.5 -53.5t-1.5 -47v-145q-50 -12 -107 -23t-122 -11zM286 748l-35 21q9 22 22.5 45t29.5 39t30 16q15 0 36.5 -6
t45 -14.5t45 -14.5t36.5 -6t30 18t24 34l35 -20q-9 -21 -23 -43.5t-29.5 -38.5t-30.5 -16t-36.5 6t-45 14.5t-44.5 14.5t-36 6t-30.5 -18.5t-23.5 -36.5z" />
    <glyph glyph-name="H" unicode="H" horiz-adv-x="806" 
d="M482 -5l-5 49l115 23l-40 -39q3 15 6.5 36t5.5 41t2 30v435q0 11 -2.5 33t-6 44t-5.5 31l40 -38l-112 18l5 52q19 -1 42 -2t43 -2t29 -1q26 0 60 1.5t75 3.5l4 -57l-112 -10l36 35q-1 -17 -5 -58t-4 -80v-375q0 -26 1.5 -53t4.5 -49t5 -35l-38 35l125 -10l-7 -53h-128
q-25 0 -59 -1.5t-75 -3.5zM61 -5l-5 49l114 23l-39 -39q2 9 5 30.5t6 44t3 32.5v435q0 11 -2.5 32.5t-6 43.5t-5.5 32l39 -38l-112 18l5 52q19 -1 42 -2t43.5 -2t29.5 -1q26 0 60 1.5t75 3.5l4 -57l-113 -10l38 35q-1 -8 -4 -31t-5 -52t-2 -55v-375q0 -26 2 -52.5t5 -49
t5 -35.5l-39 35l126 -10l-7 -53h-128q-25 0 -59 -1.5t-75 -3.5zM176 329v48l445 5v-53h-445z" />
    <glyph glyph-name="Hbar" unicode="&#x126;" horiz-adv-x="806" 
d="M482 -5l-5 49l115 23l-40 -39q3 15 6.5 36t5.5 41t2 30v435q0 11 -2.5 33t-6 44t-5.5 31l40 -38l-112 18l5 52q19 -1 42 -2t43 -2t29 -1q26 0 60 1.5t75 3.5l4 -57l-112 -10l36 35q-1 -17 -5 -58t-4 -80v-375q0 -26 1.5 -53t4.5 -49t5 -35l-38 35l125 -10l-7 -53h-128
q-25 0 -59 -1.5t-75 -3.5zM61 -5l-5 49l114 23l-39 -39q2 9 5 30.5t6 44t3 32.5v435q0 11 -2.5 32.5t-6 43.5t-5.5 32l39 -38l-112 18l5 52q19 -1 42 -2t43.5 -2t29.5 -1q26 0 60 1.5t75 3.5l4 -57l-113 -10l38 35q-1 -8 -4 -31t-5 -52t-2 -55v-375q0 -26 2 -52.5t5 -49
t5 -35.5l-39 35l126 -10l-7 -53h-128q-25 0 -59 -1.5t-75 -3.5zM176 329v48l445 5v-53h-445zM76 499v42h645l-4 -42h-641z" />
    <glyph glyph-name="uni1E2A" unicode="&#x1e2a;" horiz-adv-x="806" 
d="M482 -5l-5 49l115 23l-40 -39q3 15 6.5 36t5.5 41t2 30v435q0 11 -2.5 33t-6 44t-5.5 31l40 -38l-112 18l5 52q19 -1 42 -2t43 -2t29 -1q26 0 60 1.5t75 3.5l4 -57l-112 -10l36 35q-1 -17 -5 -58t-4 -80v-375q0 -26 1.5 -53t4.5 -49t5 -35l-38 35l125 -10l-7 -53h-128
q-25 0 -59 -1.5t-75 -3.5zM61 -5l-5 49l114 23l-39 -39q2 9 5 30.5t6 44t3 32.5v435q0 11 -2.5 32.5t-6 43.5t-5.5 32l39 -38l-112 18l5 52q19 -1 42 -2t43.5 -2t29.5 -1q26 0 60 1.5t75 3.5l4 -57l-113 -10l38 35q-1 -8 -4 -31t-5 -52t-2 -55v-375q0 -26 2 -52.5t5 -49
t5 -35.5l-39 35l126 -10l-7 -53h-128q-25 0 -59 -1.5t-75 -3.5zM176 329v48l445 5v-53h-445zM261 -64l37 12q17 -33 43.5 -49.5t54.5 -16.5q29 0 55.5 16.5t42.5 49.5l36 -12q-13 -58 -51.5 -87.5t-82.5 -29.5t-83 29.5t-52 87.5z" />
    <glyph glyph-name="Hcircumflex" unicode="&#x124;" horiz-adv-x="806" 
d="M482 -5l-5 49l115 23l-40 -39q3 15 6.5 36t5.5 41t2 30v435q0 11 -2.5 33t-6 44t-5.5 31l40 -38l-112 18l5 52q19 -1 42 -2t43 -2t29 -1q26 0 60 1.5t75 3.5l4 -57l-112 -10l36 35q-1 -17 -5 -58t-4 -80v-375q0 -26 1.5 -53t4.5 -49t5 -35l-38 35l125 -10l-7 -53h-128
q-25 0 -59 -1.5t-75 -3.5zM61 -5l-5 49l114 23l-39 -39q2 9 5 30.5t6 44t3 32.5v435q0 11 -2.5 32.5t-6 43.5t-5.5 32l39 -38l-112 18l5 52q19 -1 42 -2t43.5 -2t29.5 -1q26 0 60 1.5t75 3.5l4 -57l-113 -10l38 35q-1 -8 -4 -31t-5 -52t-2 -55v-375q0 -26 2 -52.5t5 -49
t5 -35.5l-39 35l126 -10l-7 -53h-128q-25 0 -59 -1.5t-75 -3.5zM176 329v48l445 5v-53h-445zM549 753l-190 86l33 39h39l140 -90zM249 753l-22 35l141 90h39l33 -39z" />
    <glyph glyph-name="uni1E24" unicode="&#x1e24;" horiz-adv-x="806" 
d="M482 -5l-5 49l115 23l-40 -39q3 15 6.5 36t5.5 41t2 30v435q0 11 -2.5 33t-6 44t-5.5 31l40 -38l-112 18l5 52q19 -1 42 -2t43 -2t29 -1q26 0 60 1.5t75 3.5l4 -57l-112 -10l36 35q-1 -17 -5 -58t-4 -80v-375q0 -26 1.5 -53t4.5 -49t5 -35l-38 35l125 -10l-7 -53h-128
q-25 0 -59 -1.5t-75 -3.5zM61 -5l-5 49l114 23l-39 -39q2 9 5 30.5t6 44t3 32.5v435q0 11 -2.5 32.5t-6 43.5t-5.5 32l39 -38l-112 18l5 52q19 -1 42 -2t43.5 -2t29.5 -1q26 0 60 1.5t75 3.5l4 -57l-113 -10l38 35q-1 -8 -4 -31t-5 -52t-2 -55v-375q0 -26 2 -52.5t5 -49
t5 -35.5l-39 35l126 -10l-7 -53h-128q-25 0 -59 -1.5t-75 -3.5zM176 329v48l445 5v-53h-445zM399 -209q-28 0 -43 17t-15 45q0 29 15 46.5t43 17.5t43 -16.5t15 -47.5q0 -28 -14.5 -45t-43.5 -17z" />
    <glyph glyph-name="I" unicode="I" horiz-adv-x="385" 
d="M61 -5l-5 49l114 23l-39 -39q2 9 5 30.5t6 44t3 32.5v435q0 11 -2.5 32.5t-6 43.5t-5.5 32l39 -38l-112 18l5 52q19 -1 42 -2t43.5 -2t29.5 -1q34 0 67.5 1.5t67.5 3.5l4 -57l-113 -10l38 35q-1 -8 -4 -31t-5 -52t-2 -55v-375q0 -26 2 -52.5t5 -49t5 -35.5l-39 35
l126 -10l-7 -53h-128q-33 0 -66.5 -1.5t-67.5 -3.5z" />
    <glyph glyph-name="IJ" unicode="&#x132;" horiz-adv-x="737" 
d="M61 -5l-5 49l114 23l-39 -39q2 9 5 30.5t6 44t3 32.5v435q0 11 -2.5 32.5t-6 43.5t-5.5 32l39 -38l-112 18l5 52q19 -1 42 -2t43.5 -2t29.5 -1q34 0 67.5 1.5t67.5 3.5l4 -57l-113 -10l38 35q-1 -8 -4 -31t-5 -52t-2 -55v-375q0 -26 2 -52.5t5 -49t5 -35.5l-39 35
l126 -10l-7 -53h-128q-33 0 -66.5 -1.5t-67.5 -3.5zM470 -200l-32 21q13 27 27 58t26 59t19.5 47.5t7.5 25.5v559q0 11 -3 33t-6 43t-5 28l39 -34l-112 18l5 52q19 -1 42 -2t43.5 -2t29.5 -1q30 0 62 1.5t53.5 2.5t19.5 1l4 -57l-113 -10l37 31q-1 -13 -3.5 -34.5
t-4.5 -47.5t-2 -52v-552q0 -10 -14.5 -32.5t-36 -51t-44 -56.5t-39.5 -48z" />
    <glyph glyph-name="Iacute" unicode="&#xcd;" horiz-adv-x="385" 
d="M61 -5l-5 49l114 23l-39 -39q2 9 5 30.5t6 44t3 32.5v435q0 11 -2.5 32.5t-6 43.5t-5.5 32l39 -38l-112 18l5 52q19 -1 42 -2t43.5 -2t29.5 -1q34 0 67.5 1.5t67.5 3.5l4 -57l-113 -10l38 35q-1 -8 -4 -31t-5 -52t-2 -55v-375q0 -26 2 -52.5t5 -49t5 -35.5l-39 35
l126 -10l-7 -53h-128q-33 0 -66.5 -1.5t-67.5 -3.5zM111 753l-17 40l222 115l29 -62z" />
    <glyph glyph-name="Ibreve" unicode="&#x12c;" horiz-adv-x="385" 
d="M61 -5l-5 49l114 23l-39 -39q2 9 5 30.5t6 44t3 32.5v435q0 11 -2.5 32.5t-6 43.5t-5.5 32l39 -38l-112 18l5 52q19 -1 42 -2t43.5 -2t29.5 -1q34 0 67.5 1.5t67.5 3.5l4 -57l-113 -10l38 35q-1 -8 -4 -31t-5 -52t-2 -55v-375q0 -26 2 -52.5t5 -49t5 -35.5l-39 35
l126 -10l-7 -53h-128q-33 0 -66.5 -1.5t-67.5 -3.5zM54 870l37 12q17 -33 43.5 -49.5t54.5 -16.5q29 0 55.5 16.5t42.5 49.5l36 -12q-13 -58 -51.5 -87.5t-82.5 -29.5t-83 29.5t-52 87.5z" />
    <glyph glyph-name="uni01CF" unicode="&#x1cf;" horiz-adv-x="385" 
d="M61 -5l-5 49l114 23l-39 -39q2 9 5 30.5t6 44t3 32.5v435q0 11 -2.5 32.5t-6 43.5t-5.5 32l39 -38l-112 18l5 52q19 -1 42 -2t43.5 -2t29.5 -1q34 0 67.5 1.5t67.5 3.5l4 -57l-113 -10l38 35q-1 -8 -4 -31t-5 -52t-2 -55v-375q0 -26 2 -52.5t5 -49t5 -35.5l-39 35
l126 -10l-7 -53h-128q-33 0 -66.5 -1.5t-67.5 -3.5zM39 878l190 -86l-33 -39h-39l-140 90zM339 878l22 -35l-141 -90h-39l-33 39z" />
    <glyph glyph-name="Icircumflex" unicode="&#xce;" horiz-adv-x="385" 
d="M61 -5l-5 49l114 23l-39 -39q2 9 5 30.5t6 44t3 32.5v435q0 11 -2.5 32.5t-6 43.5t-5.5 32l39 -38l-112 18l5 52q19 -1 42 -2t43.5 -2t29.5 -1q34 0 67.5 1.5t67.5 3.5l4 -57l-113 -10l38 35q-1 -8 -4 -31t-5 -52t-2 -55v-375q0 -26 2 -52.5t5 -49t5 -35.5l-39 35
l126 -10l-7 -53h-128q-33 0 -66.5 -1.5t-67.5 -3.5zM339 753l-190 86l33 39h39l140 -90zM39 753l-22 35l141 90h39l33 -39z" />
    <glyph glyph-name="uni0208" unicode="&#x208;" horiz-adv-x="385" 
d="M61 -5l-5 49l114 23l-39 -39q2 9 5 30.5t6 44t3 32.5v435q0 11 -2.5 32.5t-6 43.5t-5.5 32l39 -38l-112 18l5 52q19 -1 42 -2t43.5 -2t29.5 -1q34 0 67.5 1.5t67.5 3.5l4 -57l-113 -10l38 35q-1 -8 -4 -31t-5 -52t-2 -55v-375q0 -26 2 -52.5t5 -49t5 -35.5l-39 35
l126 -10l-7 -53h-128q-33 0 -66.5 -1.5t-67.5 -3.5zM320 753l-205 148l44 52l187 -165zM197 753l-227 111l34 60l214 -132z" />
    <glyph glyph-name="Idieresis" unicode="&#xcf;" horiz-adv-x="385" 
d="M61 -5l-5 49l114 23l-39 -39q2 9 5 30.5t6 44t3 32.5v435q0 11 -2.5 32.5t-6 43.5t-5.5 32l39 -38l-112 18l5 52q19 -1 42 -2t43.5 -2t29.5 -1q34 0 67.5 1.5t67.5 3.5l4 -57l-113 -10l38 35q-1 -8 -4 -31t-5 -52t-2 -55v-375q0 -26 2 -52.5t5 -49t5 -35.5l-39 35
l126 -10l-7 -53h-128q-33 0 -66.5 -1.5t-67.5 -3.5zM280 753q-26 0 -40.5 15t-14.5 42q0 25 15 40t40 15t39.5 -14t14.5 -41t-14 -42t-40 -15zM99 753q-26 0 -40.5 15t-14.5 42q0 25 15 40t40 15q24 0 39 -14t15 -41t-14.5 -42t-39.5 -15z" />
    <glyph glyph-name="uni1E2E" unicode="&#x1e2e;" horiz-adv-x="385" 
d="M61 -5l-5 49l114 23l-39 -39q2 9 5 30.5t6 44t3 32.5v435q0 11 -2.5 32.5t-6 43.5t-5.5 32l39 -38l-112 18l5 52q19 -1 42 -2t43.5 -2t29.5 -1q34 0 67.5 1.5t67.5 3.5l4 -57l-113 -10l38 35q-1 -8 -4 -31t-5 -52t-2 -55v-375q0 -26 2 -52.5t5 -49t5 -35.5l-39 35
l126 -10l-7 -53h-128q-33 0 -66.5 -1.5t-67.5 -3.5zM257 753q-23 0 -35.5 15.5t-12.5 38.5q0 25 12.5 40.5t35.5 15.5t35.5 -14.5t12.5 -41.5q0 -24 -12.5 -39t-35.5 -15zM113 753q-23 0 -36 15t-13 39q0 26 13 41t36 15t35 -14.5t12 -41.5q0 -23 -12 -38.5t-35 -15.5z
M136 881l-24 35l186 98l38 -55z" />
    <glyph glyph-name="Idotaccent" unicode="&#x130;" horiz-adv-x="385" 
d="M61 -5l-5 49l114 23l-39 -39q2 9 5 30.5t6 44t3 32.5v435q0 11 -2.5 32.5t-6 43.5t-5.5 32l39 -38l-112 18l5 52q19 -1 42 -2t43.5 -2t29.5 -1q34 0 67.5 1.5t67.5 3.5l4 -57l-113 -10l38 35q-1 -8 -4 -31t-5 -52t-2 -55v-375q0 -26 2 -52.5t5 -49t5 -35.5l-39 35
l126 -10l-7 -53h-128q-33 0 -66.5 -1.5t-67.5 -3.5zM189 754q-28 0 -43 17t-15 45q0 29 15 46.5t43 17.5t43 -16.5t15 -47.5q0 -28 -14.5 -45t-43.5 -17z" />
    <glyph glyph-name="uni1ECA" unicode="&#x1eca;" horiz-adv-x="385" 
d="M61 -5l-5 49l114 23l-39 -39q2 9 5 30.5t6 44t3 32.5v435q0 11 -2.5 32.5t-6 43.5t-5.5 32l39 -38l-112 18l5 52q19 -1 42 -2t43.5 -2t29.5 -1q34 0 67.5 1.5t67.5 3.5l4 -57l-113 -10l38 35q-1 -8 -4 -31t-5 -52t-2 -55v-375q0 -26 2 -52.5t5 -49t5 -35.5l-39 35
l126 -10l-7 -53h-128q-33 0 -66.5 -1.5t-67.5 -3.5zM198 -209q-28 0 -43 17t-15 45q0 29 15 46.5t43 17.5t43 -16.5t15 -47.5q0 -28 -14.5 -45t-43.5 -17z" />
    <glyph glyph-name="Igrave" unicode="&#xcc;" horiz-adv-x="385" 
d="M61 -5l-5 49l114 23l-39 -39q2 9 5 30.5t6 44t3 32.5v435q0 11 -2.5 32.5t-6 43.5t-5.5 32l39 -38l-112 18l5 52q19 -1 42 -2t43.5 -2t29.5 -1q34 0 67.5 1.5t67.5 3.5l4 -57l-113 -10l38 35q-1 -8 -4 -31t-5 -52t-2 -55v-375q0 -26 2 -52.5t5 -49t5 -35.5l-39 35
l126 -10l-7 -53h-128q-33 0 -66.5 -1.5t-67.5 -3.5zM284 753l-234 93l29 62l222 -115z" />
    <glyph glyph-name="uni1EC8" unicode="&#x1ec8;" horiz-adv-x="385" 
d="M61 -5l-5 49l114 23l-39 -39q2 9 5 30.5t6 44t3 32.5v435q0 11 -2.5 32.5t-6 43.5t-5.5 32l39 -38l-112 18l5 52q19 -1 42 -2t43.5 -2t29.5 -1q34 0 67.5 1.5t67.5 3.5l4 -57l-113 -10l38 35q-1 -8 -4 -31t-5 -52t-2 -55v-375q0 -26 2 -52.5t5 -49t5 -35.5l-39 35
l126 -10l-7 -53h-128q-33 0 -66.5 -1.5t-67.5 -3.5zM182 753q-20 0 -29.5 10.5t-9.5 20.5q0 17 9 26t21 14.5t21 11.5t9 16q0 11 -8 15.5t-20 4.5t-24 -3.5t-23 -8.5l-16 39q15 5 29.5 8.5t40.5 3.5q42 0 63.5 -14.5t21.5 -34.5q0 -18 -10 -29.5t-22.5 -20t-22.5 -17
t-10 -19.5q0 -9 6 -17q-4 -2 -11 -4t-15 -2z" />
    <glyph glyph-name="uni020A" unicode="&#x20a;" horiz-adv-x="385" 
d="M61 -5l-5 49l114 23l-39 -39q2 9 5 30.5t6 44t3 32.5v435q0 11 -2.5 32.5t-6 43.5t-5.5 32l39 -38l-112 18l5 52q19 -1 42 -2t43.5 -2t29.5 -1q34 0 67.5 1.5t67.5 3.5l4 -57l-113 -10l38 35q-1 -8 -4 -31t-5 -52t-2 -55v-375q0 -26 2 -52.5t5 -49t5 -35.5l-39 35
l126 -10l-7 -53h-128q-33 0 -66.5 -1.5t-67.5 -3.5zM324 764l-37 -12q-16 33 -42.5 49.5t-55.5 16.5q-28 0 -54.5 -16.5t-43.5 -49.5l-36 12q13 59 52 88t82 29q44 0 83 -29t52 -88z" />
    <glyph glyph-name="Imacron" unicode="&#x12a;" horiz-adv-x="385" 
d="M61 -5l-5 49l114 23l-39 -39q2 9 5 30.5t6 44t3 32.5v435q0 11 -2.5 32.5t-6 43.5t-5.5 32l39 -38l-112 18l5 52q19 -1 42 -2t43.5 -2t29.5 -1q34 0 67.5 1.5t67.5 3.5l4 -57l-113 -10l38 35q-1 -8 -4 -31t-5 -52t-2 -55v-375q0 -26 2 -52.5t5 -49t5 -35.5l-39 35
l126 -10l-7 -53h-128q-33 0 -66.5 -1.5t-67.5 -3.5zM72 753v54h235l-5 -54h-230z" />
    <glyph glyph-name="Iogonek" unicode="&#x12e;" horiz-adv-x="373" 
d="M99 -48q12 46 20 78.5t11.5 57.5t3.5 46v437q0 8 -2 23.5t-4 30.5t-3 21l-78 12l5 52l15 -1t35.5 -1.5t39 -1.5t25.5 -1q29 0 60 1.5t52.5 2.5l21.5 1l4 -57l-79 -7q-1 -7 -2.5 -24t-3 -38.5t-1.5 -42.5v-377q0 -21 1.5 -42.5t3 -38.5t2.5 -24l92 -7l-6 -52h-128
q-19 0 -28.5 -12.5l-9.5 -12.5zM174 -210q-25 0 -52 8t-45.5 28t-18.5 55q0 33 23.5 65.5t84.5 62.5l65 -9q-47 -19 -74 -53t-27 -62q0 -19 14.5 -32.5t45.5 -13.5q8 0 17 1.5t17 3.5l11 -43q-13 -5 -29.5 -8t-31.5 -3z" />
    <glyph glyph-name="Itilde" unicode="&#x128;" horiz-adv-x="385" 
d="M61 -5l-5 49l114 23l-39 -39q2 9 5 30.5t6 44t3 32.5v435q0 11 -2.5 32.5t-6 43.5t-5.5 32l39 -38l-112 18l5 52q19 -1 42 -2t43.5 -2t29.5 -1q34 0 67.5 1.5t67.5 3.5l4 -57l-113 -10l38 35q-1 -8 -4 -31t-5 -52t-2 -55v-375q0 -26 2 -52.5t5 -49t5 -35.5l-39 35
l126 -10l-7 -53h-128q-33 0 -66.5 -1.5t-67.5 -3.5zM57 748l-35 21q9 22 22.5 45t29.5 39t30 16q15 0 36.5 -6t45 -14.5t45 -14.5t36.5 -6t30 18t24 34l35 -20q-9 -21 -23 -43.5t-29.5 -38.5t-30.5 -16t-36.5 6t-45 14.5t-44.5 14.5t-36 6t-30.5 -18.5t-23.5 -36.5z" />
    <glyph glyph-name="J" unicode="J" horiz-adv-x="352" 
d="M85 -200l-32 21q13 27 27 58t26 59t19.5 47.5t7.5 25.5v559q0 11 -3 33t-6 43t-5 28l39 -34l-112 18l5 52q19 -1 42 -2t43.5 -2t29.5 -1q30 0 62 1.5t53.5 2.5t19.5 1l4 -57l-113 -10l37 31q-1 -13 -3.5 -34.5t-4.5 -47.5t-2 -52v-552q0 -10 -14.5 -32.5t-36 -51
t-44 -56.5t-39.5 -48z" />
    <glyph glyph-name="Jcircumflex" unicode="&#x134;" horiz-adv-x="352" 
d="M85 -200l-32 21q13 27 27 58t26 59t19.5 47.5t7.5 25.5v559q0 11 -3 33t-6 43t-5 28l39 -34l-112 18l5 52q19 -1 42 -2t43.5 -2t29.5 -1q30 0 62 1.5t53.5 2.5t19.5 1l4 -57l-113 -10l37 31q-1 -13 -3.5 -34.5t-4.5 -47.5t-2 -52v-552q0 -10 -14.5 -32.5t-36 -51
t-44 -56.5t-39.5 -48zM327 738l-190 86l33 39h39l140 -90zM27 738l-22 35l141 90h39l33 -39z" />
    <glyph glyph-name="K" unicode="K" horiz-adv-x="737" 
d="M423 -5l-5 49l94 22l-15 -37q-4 8 -16 27t-27 41.5t-27.5 41t-18.5 25.5l-167 190l185 223l56 100l17 -37l-90 18l5 52q23 -1 55 -3t47 -2q25 0 57.5 1.5t71.5 3.5l4 -57l-111 -10l44 12q-8 -7 -25 -22.5t-36 -33.5t-34 -33t-19 -20l-153 -203l-3 54l235 -268
q5 -6 21 -20.5t36 -31t37 -31t24 -20.5l-73 38l105 -11l-7 -53h-130q-13 0 -37 -1t-50.5 -2t-49.5 -2zM61 -5l-5 49l114 23l-39 -39q2 9 5 30.5t6 44t3 32.5v435q0 11 -2.5 32.5t-6 43.5t-5.5 32l39 -38l-112 18l5 52q19 -1 42 -2t43.5 -2t29.5 -1q26 0 60 1.5t75 3.5l4 -57
l-113 -10l38 35q-1 -8 -4 -31t-5 -52t-2 -55v-375q0 -26 2 -52.5t5 -49t5 -35.5l-39 35l126 -10l-7 -53h-128q-25 0 -59 -1.5t-75 -3.5z" />
    <glyph glyph-name="uni01E8" unicode="&#x1e8;" horiz-adv-x="737" 
d="M423 -5l-5 49l94 22l-15 -37q-4 8 -16 27t-27 41.5t-27.5 41t-18.5 25.5l-167 190l185 223l56 100l17 -37l-90 18l5 52q23 -1 55 -3t47 -2q25 0 57.5 1.5t71.5 3.5l4 -57l-111 -10l44 12q-8 -7 -25 -22.5t-36 -33.5t-34 -33t-19 -20l-153 -203l-3 54l235 -268
q5 -6 21 -20.5t36 -31t37 -31t24 -20.5l-73 38l105 -11l-7 -53h-130q-13 0 -37 -1t-50.5 -2t-49.5 -2zM61 -5l-5 49l114 23l-39 -39q2 9 5 30.5t6 44t3 32.5v435q0 11 -2.5 32.5t-6 43.5t-5.5 32l39 -38l-112 18l5 52q19 -1 42 -2t43.5 -2t29.5 -1q26 0 60 1.5t75 3.5l4 -57
l-113 -10l38 35q-1 -8 -4 -31t-5 -52t-2 -55v-375q0 -26 2 -52.5t5 -49t5 -35.5l-39 35l126 -10l-7 -53h-128q-25 0 -59 -1.5t-75 -3.5zM211 878l190 -86l-33 -39h-39l-140 90zM511 878l22 -35l-141 -90h-39l-33 39z" />
    <glyph glyph-name="uni0136" unicode="&#x136;" horiz-adv-x="737" 
d="M423 -5l-5 49l94 22l-15 -37q-4 8 -16 27t-27 41.5t-27.5 41t-18.5 25.5l-167 190l185 223l56 100l17 -37l-90 18l5 52q23 -1 55 -3t47 -2q25 0 57.5 1.5t71.5 3.5l4 -57l-111 -10l44 12q-8 -7 -25 -22.5t-36 -33.5t-34 -33t-19 -20l-153 -203l-3 54l235 -268
q5 -6 21 -20.5t36 -31t37 -31t24 -20.5l-73 38l105 -11l-7 -53h-130q-13 0 -37 -1t-50.5 -2t-49.5 -2zM61 -5l-5 49l114 23l-39 -39q2 9 5 30.5t6 44t3 32.5v435q0 11 -2.5 32.5t-6 43.5t-5.5 32l39 -38l-112 18l5 52q19 -1 42 -2t43.5 -2t29.5 -1q26 0 60 1.5t75 3.5l4 -57
l-113 -10l38 35q-1 -8 -4 -31t-5 -52t-2 -55v-375q0 -26 2 -52.5t5 -49t5 -35.5l-39 35l126 -10l-7 -53h-128q-25 0 -59 -1.5t-75 -3.5zM365 -248l-36 12q3 11 7.5 31t6.5 39.5t-5 27.5l27 -23q-8 0 -20.5 4t-22.5 16.5t-10 35.5q0 29 15.5 42t32.5 13q51 0 51 -63
q0 -20 -7.5 -45t-18 -49t-20.5 -41z" />
    <glyph glyph-name="L" unicode="L" horiz-adv-x="592" 
d="M61 -5l-5 49l114 23l-39 -39q2 9 5 30.5t6 44t3 32.5v435q0 11 -2.5 32.5t-6 43.5t-5.5 32l39 -38l-112 18l5 52q19 -1 42 -2t43.5 -2t29.5 -1q22 0 47.5 1t48.5 1.5t37 1.5t12 1l4 -57l-123 -10l38 35q-1 -8 -4 -31t-5 -52t-2 -55v-375q0 -26 2 -52.5t5 -49t5 -35.5
l-40 27h155q30 0 59.5 4.5t42.5 7.5l-30 -24q11 14 23 31t14 26l15 68l54 -5l-15 -149l-19 -18q-24 1 -46.5 2t-40 1.5t-27.5 0.5h-193q-12 0 -34.5 -1t-48.5 -2t-51 -2z" />
    <glyph glyph-name="uni01C7" unicode="&#x1c7;" horiz-adv-x="944" 
d="M61 -5l-5 49l114 23l-39 -39q2 9 5 30.5t6 44t3 32.5v435q0 11 -2.5 32.5t-6 43.5t-5.5 32l39 -38l-112 18l5 52q19 -1 42 -2t43.5 -2t29.5 -1q22 0 47.5 1t48.5 1.5t37 1.5t12 1l4 -57l-123 -10l38 35q-1 -8 -4 -31t-5 -52t-2 -55v-375q0 -26 2 -52.5t5 -49t5 -35.5
l-40 27h155q30 0 59.5 4.5t42.5 7.5l-30 -24q11 14 23 31t14 26l15 68l54 -5l-15 -149l-19 -18q-24 1 -46.5 2t-40 1.5t-27.5 0.5h-193q-12 0 -34.5 -1t-48.5 -2t-51 -2zM677 -200l-32 21q13 27 27 58t26 59t19.5 47.5t7.5 25.5v559q0 11 -3 33t-6 43t-5 28l39 -34l-112 18
l5 52q19 -1 42 -2t43.5 -2t29.5 -1q30 0 62 1.5t53.5 2.5t19.5 1l4 -57l-113 -10l37 31q-1 -13 -3.5 -34.5t-4.5 -47.5t-2 -52v-552q0 -10 -14.5 -32.5t-36 -51t-44 -56.5t-39.5 -48z" />
    <glyph glyph-name="Lacute" unicode="&#x139;" horiz-adv-x="592" 
d="M61 -5l-5 49l114 23l-39 -39q2 9 5 30.5t6 44t3 32.5v435q0 11 -2.5 32.5t-6 43.5t-5.5 32l39 -38l-112 18l5 52q19 -1 42 -2t43.5 -2t29.5 -1q22 0 47.5 1t48.5 1.5t37 1.5t12 1l4 -57l-123 -10l38 35q-1 -8 -4 -31t-5 -52t-2 -55v-375q0 -26 2 -52.5t5 -49t5 -35.5
l-40 27h155q30 0 59.5 4.5t42.5 7.5l-30 -24q11 14 23 31t14 26l15 68l54 -5l-15 -149l-19 -18q-24 1 -46.5 2t-40 1.5t-27.5 0.5h-193q-12 0 -34.5 -1t-48.5 -2t-51 -2zM157 753l-17 40l222 115l29 -62z" />
    <glyph glyph-name="Lcaron" unicode="&#x13d;" horiz-adv-x="592" 
d="M61 -5l-5 49l114 23l-39 -39q2 9 5 30.5t6 44t3 32.5v435q0 11 -2.5 32.5t-6 43.5t-5.5 32l39 -38l-112 18l5 52q19 -1 42 -2t43.5 -2t29.5 -1q22 0 47.5 1t48.5 1.5t37 1.5t12 1l4 -57l-123 -10l38 35q-1 -8 -4 -31t-5 -52t-2 -55v-375q0 -26 2 -52.5t5 -49t5 -35.5
l-40 27h155q30 0 59.5 4.5t42.5 7.5l-30 -24q11 14 23 31t14 26l15 68l54 -5l-15 -149l-19 -18q-24 1 -46.5 2t-40 1.5t-27.5 0.5h-193q-12 0 -34.5 -1t-48.5 -2t-51 -2zM489 513l-44 3l42 240h75z" />
    <glyph glyph-name="uni013B" unicode="&#x13b;" horiz-adv-x="592" 
d="M61 -5l-5 49l114 23l-39 -39q2 9 5 30.5t6 44t3 32.5v435q0 11 -2.5 32.5t-6 43.5t-5.5 32l39 -38l-112 18l5 52q19 -1 42 -2t43.5 -2t29.5 -1q22 0 47.5 1t48.5 1.5t37 1.5t12 1l4 -57l-123 -10l38 35q-1 -8 -4 -31t-5 -52t-2 -55v-375q0 -26 2 -52.5t5 -49t5 -35.5
l-40 27h155q30 0 59.5 4.5t42.5 7.5l-30 -24q11 14 23 31t14 26l15 68l54 -5l-15 -149l-19 -18q-24 1 -46.5 2t-40 1.5t-27.5 0.5h-193q-12 0 -34.5 -1t-48.5 -2t-51 -2zM298 -248l-36 12q3 11 7.5 31t6.5 39.5t-5 27.5l27 -23q-8 0 -20.5 4t-22.5 16.5t-10 35.5
q0 29 15.5 42t32.5 13q51 0 51 -63q0 -20 -7.5 -45t-18 -49t-20.5 -41z" />
    <glyph glyph-name="Ldot" unicode="&#x13f;" horiz-adv-x="592" 
d="M61 -5l-5 49l114 23l-39 -39q2 9 5 30.5t6 44t3 32.5v435q0 11 -2.5 32.5t-6 43.5t-5.5 32l39 -38l-112 18l5 52q19 -1 42 -2t43.5 -2t29.5 -1q22 0 47.5 1t48.5 1.5t37 1.5t12 1l4 -57l-123 -10l38 35q-1 -8 -4 -31t-5 -52t-2 -55v-375q0 -26 2 -52.5t5 -49t5 -35.5
l-40 27h155q30 0 59.5 4.5t42.5 7.5l-30 -24q11 14 23 31t14 26l15 68l54 -5l-15 -149l-19 -18q-24 1 -46.5 2t-40 1.5t-27.5 0.5h-193q-12 0 -34.5 -1t-48.5 -2t-51 -2zM437 308q-25 0 -39.5 17t-14.5 43q0 28 14.5 45t39.5 17t39 -16.5t14 -45.5q0 -26 -13.5 -43
t-39.5 -17z" />
    <glyph glyph-name="uni1E36" unicode="&#x1e36;" horiz-adv-x="592" 
d="M61 -5l-5 49l114 23l-39 -39q2 9 5 30.5t6 44t3 32.5v435q0 11 -2.5 32.5t-6 43.5t-5.5 32l39 -38l-112 18l5 52q19 -1 42 -2t43.5 -2t29.5 -1q22 0 47.5 1t48.5 1.5t37 1.5t12 1l4 -57l-123 -10l38 35q-1 -8 -4 -31t-5 -52t-2 -55v-375q0 -26 2 -52.5t5 -49t5 -35.5
l-40 27h155q30 0 59.5 4.5t42.5 7.5l-30 -24q11 14 23 31t14 26l15 68l54 -5l-15 -149l-19 -18q-24 1 -46.5 2t-40 1.5t-27.5 0.5h-193q-12 0 -34.5 -1t-48.5 -2t-51 -2zM294 -209q-28 0 -43 17t-15 45q0 29 15 46.5t43 17.5t43 -16.5t15 -47.5q0 -28 -14.5 -45t-43.5 -17z
" />
    <glyph glyph-name="uni01C8" unicode="&#x1c8;" horiz-adv-x="856" 
d="M61 -5l-5 49l114 23l-39 -39q2 9 5 30.5t6 44t3 32.5v435q0 11 -2.5 32.5t-6 43.5t-5.5 32l39 -38l-112 18l5 52q19 -1 42 -2t43.5 -2t29.5 -1q22 0 47.5 1t48.5 1.5t37 1.5t12 1l4 -57l-123 -10l38 35q-1 -8 -4 -31t-5 -52t-2 -55v-375q0 -26 2 -52.5t5 -49t5 -35.5
l-40 27h155q30 0 59.5 4.5t42.5 7.5l-30 -24q11 14 23 31t14 26l15 68l54 -5l-15 -149l-19 -18q-24 1 -46.5 2t-40 1.5t-27.5 0.5h-193q-12 0 -34.5 -1t-48.5 -2t-51 -2zM659 -235l-35 20l25.5 68t25 70.5t18.5 60.5t7 37v42v54v239q0 13 -2.5 33.5t-6 42.5t-6.5 37l39 -46
l-110 19l5 52h144l19 -18q-1 -15 -3 -41.5t-3 -55.5t-1 -53v-336q0 -11 -11 -36t-28.5 -57.5t-37.5 -67t-39 -64.5zM725 592q-28 0 -43 17t-15 45q0 29 15 46.5t43 17.5t43 -16.5t15 -47.5q0 -28 -14.5 -45t-43.5 -17z" />
    <glyph glyph-name="uni1E3A" unicode="&#x1e3a;" horiz-adv-x="592" 
d="M61 -5l-5 49l114 23l-39 -39q2 9 5 30.5t6 44t3 32.5v435q0 11 -2.5 32.5t-6 43.5t-5.5 32l39 -38l-112 18l5 52q19 -1 42 -2t43.5 -2t29.5 -1q22 0 47.5 1t48.5 1.5t37 1.5t12 1l4 -57l-123 -10l38 35q-1 -8 -4 -31t-5 -52t-2 -55v-375q0 -26 2 -52.5t5 -49t5 -35.5
l-40 27h155q30 0 59.5 4.5t42.5 7.5l-30 -24q11 14 23 31t14 26l15 68l54 -5l-15 -149l-19 -18q-24 1 -46.5 2t-40 1.5t-27.5 0.5h-193q-12 0 -34.5 -1t-48.5 -2t-51 -2zM150 -105v42h287l-4 -42h-283z" />
    <glyph glyph-name="Lslash" unicode="&#x141;" horiz-adv-x="592" 
d="M61 -5l-5 49l114 23l-39 -39q2 9 5 30.5t6 44t3 32.5v435q0 11 -2.5 32.5t-6 43.5t-5.5 32l39 -38l-112 18l5 52q19 -1 42 -2t43.5 -2t29.5 -1q22 0 47.5 1t48.5 1.5t37 1.5t12 1l4 -57l-123 -10l38 35q-1 -8 -4 -31t-5 -52t-2 -55v-375q0 -26 2 -52.5t5 -49t5 -35.5
l-40 27h155q30 0 59.5 4.5t42.5 7.5l-30 -24q11 14 23 31t14 26l15 68l54 -5l-15 -149l-19 -18q-24 1 -46.5 2t-40 1.5t-27.5 0.5h-193q-12 0 -34.5 -1t-48.5 -2t-51 -2zM28 236l-17 41l353 190l10 -42z" />
    <glyph glyph-name="M" unicode="M" horiz-adv-x="979" 
d="M55 -5l-5 49l113 23l-45 -45q1 5 5.5 19.5t9.5 33.5t9 35.5t4 24.5l26 436q1 11 -0.5 33t-3.5 45t-4 36l39 -44l-118 17l5 52q19 -1 42 -2t43.5 -2t29.5 -1h75l19 -21q10 -28 21 -61t20 -59t12 -35l148 -389h-25l150 396q4 8 13 33t20.5 57t20.5 59l20 20h20q39 0 79.5 2
t77.5 3l4 -57l-115 -10l35 31l-2 -80t0 -54l29 -375q1 -7 4 -25.5t7.5 -41t8.5 -43.5t7 -33l-42 41l117 -10l-7 -53h-128q-12 0 -35.5 -1t-49.5 -2t-49 -2l-5 49l112 23l-41 -45q2 9 5.5 31.5t6 46t1.5 35.5l-31 488l14 -2l-234 -621h-32l-234 621l14 2l-26 -458
q-1 -12 0 -33.5t2.5 -44.5t3.5 -41t3 -24l-38 41l116 -10l-7 -53h-114q-10 0 -31 -1t-45.5 -2t-44.5 -2z" />
    <glyph glyph-name="uni1E42" unicode="&#x1e42;" horiz-adv-x="979" 
d="M55 -5l-5 49l113 23l-45 -45q1 5 5.5 19.5t9.5 33.5t9 35.5t4 24.5l26 436q1 11 -0.5 33t-3.5 45t-4 36l39 -44l-118 17l5 52q19 -1 42 -2t43.5 -2t29.5 -1h75l19 -21q10 -28 21 -61t20 -59t12 -35l148 -389h-25l150 396q4 8 13 33t20.5 57t20.5 59l20 20h20q39 0 79.5 2
t77.5 3l4 -57l-115 -10l35 31l-2 -80t0 -54l29 -375q1 -7 4 -25.5t7.5 -41t8.5 -43.5t7 -33l-42 41l117 -10l-7 -53h-128q-12 0 -35.5 -1t-49.5 -2t-49 -2l-5 49l112 23l-41 -45q2 9 5.5 31.5t6 46t1.5 35.5l-31 488l14 -2l-234 -621h-32l-234 621l14 2l-26 -458
q-1 -12 0 -33.5t2.5 -44.5t3.5 -41t3 -24l-38 41l116 -10l-7 -53h-114q-10 0 -31 -1t-45.5 -2t-44.5 -2zM489 -209q-28 0 -43 17t-15 45q0 29 15 46.5t43 17.5t43 -16.5t15 -47.5q0 -28 -14.5 -45t-43.5 -17z" />
    <glyph glyph-name="N" unicode="N" horiz-adv-x="805" 
d="M63 -5l-5 49l113 23l-39 -38q2 10 5.5 31.5t6 43t2.5 31.5v435q0 10 -3 32t-5.5 43t-3.5 28l37 -32l-115 17l5 52q19 -1 42.5 -2t43.5 -2t30 -1h41l20 -20q18 -28 38.5 -61.5t37 -59.5t22.5 -35l285 -394l-20 -6v441q0 10 -3 33.5t-6.5 47.5t-5.5 33l40 -44l-113 18l5 52
q16 -1 37.5 -2t41 -2t28.5 -1q44 0 75.5 2t53.5 3l4 -57l-113 -10l41 36q-2 -12 -8 -34.5t-10.5 -49.5t-4.5 -55l-1 -540h-54l-419 592l20 6v-433q0 -26 2 -53t4.5 -49.5t4.5 -36.5l-38 37l116 -10l-7 -53h-106q-10 0 -31.5 -1t-46 -2t-44.5 -2z" />
    <glyph glyph-name="uni01CA" unicode="&#x1ca;" horiz-adv-x="1158" 
d="M63 -5l-5 49l113 23l-39 -38q2 10 5.5 31.5t6 43t2.5 31.5v435q0 10 -3 32t-5.5 43t-3.5 28l37 -32l-115 17l5 52q19 -1 42.5 -2t43.5 -2t30 -1h41l20 -20q18 -28 38.5 -61.5t37 -59.5t22.5 -35l285 -394l-20 -6v441q0 10 -3 33.5t-6.5 47.5t-5.5 33l40 -44l-113 18l5 52
q16 -1 37.5 -2t41 -2t28.5 -1q44 0 75.5 2t53.5 3l4 -57l-113 -10l41 36q-2 -12 -8 -34.5t-10.5 -49.5t-4.5 -55l-1 -540h-54l-419 592l20 6v-433q0 -26 2 -53t4.5 -49.5t4.5 -36.5l-38 37l116 -10l-7 -53h-106q-10 0 -31.5 -1t-46 -2t-44.5 -2zM890 -200l-32 21
q13 27 27 58t26 59t19.5 47.5t7.5 25.5v559q0 11 -3 33t-6 43t-5 28l39 -34l-112 18l5 52q19 -1 42 -2t43.5 -2t29.5 -1q30 0 62 1.5t53.5 2.5t19.5 1l4 -57l-113 -10l37 31q-1 -13 -3.5 -34.5t-4.5 -47.5t-2 -52v-552q0 -10 -14.5 -32.5t-36 -51t-44 -56.5t-39.5 -48z" />
    <glyph glyph-name="Nacute" unicode="&#x143;" horiz-adv-x="805" 
d="M63 -5l-5 49l113 23l-39 -38q2 10 5.5 31.5t6 43t2.5 31.5v435q0 10 -3 32t-5.5 43t-3.5 28l37 -32l-115 17l5 52q19 -1 42.5 -2t43.5 -2t30 -1h41l20 -20q18 -28 38.5 -61.5t37 -59.5t22.5 -35l285 -394l-20 -6v441q0 10 -3 33.5t-6.5 47.5t-5.5 33l40 -44l-113 18l5 52
q16 -1 37.5 -2t41 -2t28.5 -1q44 0 75.5 2t53.5 3l4 -57l-113 -10l41 36q-2 -12 -8 -34.5t-10.5 -49.5t-4.5 -55l-1 -540h-54l-419 592l20 6v-433q0 -26 2 -53t4.5 -49.5t4.5 -36.5l-38 37l116 -10l-7 -53h-106q-10 0 -31.5 -1t-46 -2t-44.5 -2zM316 753l-17 40l222 115
l29 -62z" />
    <glyph glyph-name="Ncaron" unicode="&#x147;" horiz-adv-x="805" 
d="M63 -5l-5 49l113 23l-39 -38q2 10 5.5 31.5t6 43t2.5 31.5v435q0 10 -3 32t-5.5 43t-3.5 28l37 -32l-115 17l5 52q19 -1 42.5 -2t43.5 -2t30 -1h41l20 -20q18 -28 38.5 -61.5t37 -59.5t22.5 -35l285 -394l-20 -6v441q0 10 -3 33.5t-6.5 47.5t-5.5 33l40 -44l-113 18l5 52
q16 -1 37.5 -2t41 -2t28.5 -1q44 0 75.5 2t53.5 3l4 -57l-113 -10l41 36q-2 -12 -8 -34.5t-10.5 -49.5t-4.5 -55l-1 -540h-54l-419 592l20 6v-433q0 -26 2 -53t4.5 -49.5t4.5 -36.5l-38 37l116 -10l-7 -53h-106q-10 0 -31.5 -1t-46 -2t-44.5 -2zM244 878l190 -86l-33 -39
h-39l-140 90zM544 878l22 -35l-141 -90h-39l-33 39z" />
    <glyph glyph-name="uni0145" unicode="&#x145;" horiz-adv-x="805" 
d="M63 -5l-5 49l113 23l-39 -38q2 10 5.5 31.5t6 43t2.5 31.5v435q0 10 -3 32t-5.5 43t-3.5 28l37 -32l-115 17l5 52q19 -1 42.5 -2t43.5 -2t30 -1h41l20 -20q18 -28 38.5 -61.5t37 -59.5t22.5 -35l285 -394l-20 -6v441q0 10 -3 33.5t-6.5 47.5t-5.5 33l40 -44l-113 18l5 52
q16 -1 37.5 -2t41 -2t28.5 -1q44 0 75.5 2t53.5 3l4 -57l-113 -10l41 36q-2 -12 -8 -34.5t-10.5 -49.5t-4.5 -55l-1 -540h-54l-419 592l20 6v-433q0 -26 2 -53t4.5 -49.5t4.5 -36.5l-38 37l116 -10l-7 -53h-106q-10 0 -31.5 -1t-46 -2t-44.5 -2zM420 -248l-36 12
q3 11 7.5 31t6.5 39.5t-5 27.5l27 -23q-8 0 -20.5 4t-22.5 16.5t-10 35.5q0 29 15.5 42t32.5 13q51 0 51 -63q0 -20 -7.5 -45t-18 -49t-20.5 -41z" />
    <glyph glyph-name="uni1E44" unicode="&#x1e44;" horiz-adv-x="805" 
d="M63 -5l-5 49l113 23l-39 -38q2 10 5.5 31.5t6 43t2.5 31.5v435q0 10 -3 32t-5.5 43t-3.5 28l37 -32l-115 17l5 52q19 -1 42.5 -2t43.5 -2t30 -1h41l20 -20q18 -28 38.5 -61.5t37 -59.5t22.5 -35l285 -394l-20 -6v441q0 10 -3 33.5t-6.5 47.5t-5.5 33l40 -44l-113 18l5 52
q16 -1 37.5 -2t41 -2t28.5 -1q44 0 75.5 2t53.5 3l4 -57l-113 -10l41 36q-2 -12 -8 -34.5t-10.5 -49.5t-4.5 -55l-1 -540h-54l-419 592l20 6v-433q0 -26 2 -53t4.5 -49.5t4.5 -36.5l-38 37l116 -10l-7 -53h-106q-10 0 -31.5 -1t-46 -2t-44.5 -2zM394 754q-28 0 -43 17
t-15 45q0 29 15 46.5t43 17.5t43 -16.5t15 -47.5q0 -28 -14.5 -45t-43.5 -17z" />
    <glyph glyph-name="uni1E46" unicode="&#x1e46;" horiz-adv-x="805" 
d="M63 -5l-5 49l113 23l-39 -38q2 10 5.5 31.5t6 43t2.5 31.5v435q0 10 -3 32t-5.5 43t-3.5 28l37 -32l-115 17l5 52q19 -1 42.5 -2t43.5 -2t30 -1h41l20 -20q18 -28 38.5 -61.5t37 -59.5t22.5 -35l285 -394l-20 -6v441q0 10 -3 33.5t-6.5 47.5t-5.5 33l40 -44l-113 18l5 52
q16 -1 37.5 -2t41 -2t28.5 -1q44 0 75.5 2t53.5 3l4 -57l-113 -10l41 36q-2 -12 -8 -34.5t-10.5 -49.5t-4.5 -55l-1 -540h-54l-419 592l20 6v-433q0 -26 2 -53t4.5 -49.5t4.5 -36.5l-38 37l116 -10l-7 -53h-106q-10 0 -31.5 -1t-46 -2t-44.5 -2zM416 -209q-28 0 -43 17
t-15 45q0 29 15 46.5t43 17.5t43 -16.5t15 -47.5q0 -28 -14.5 -45t-43.5 -17z" />
    <glyph glyph-name="Eng" unicode="&#x14a;" horiz-adv-x="805" 
d="M555 -200l-32 21q17 35 36 76t35.5 85.5t22.5 88.5l4 -90l-432 611l20 5v-432q0 -33 3 -66.5t7 -56.5l-37 21l116 -10l-7 -53h-106q-10 0 -31.5 -1t-46 -2t-44.5 -2l-5 49l113 22l-37 -28q2 14 5 33t5 36.5t2 27.5v435q0 9 -2 27t-4.5 37.5t-4.5 30.5l36 -24l-115 17
l5 52q19 -1 42.5 -2t43.5 -2t30 -1h41l20 -20q18 -28 38.5 -61.5t37 -59.5t22.5 -35l284 -395l-19 -5v441q0 8 -2 26t-5 38t-7 35l38 -29l-112 18l5 52q16 -1 37.5 -2t41 -2t28.5 -1q44 0 75.5 2t53.5 3l4 -57l-113 -10l37 19q-4 -21 -11.5 -55t-7.5 -67l-1 -540
q0 -10 -3.5 -22.5t-14.5 -33.5t-32 -55.5t-57 -88.5z" />
    <glyph glyph-name="uni019D" unicode="&#x19d;" horiz-adv-x="795" 
d="M33 -194l1 50q54 0 78 34.5t24 111.5v568q0 10 -2.5 32t-5.5 43l-4 28l38 -32l-116 17l5 52q19 -1 42.5 -2t43.5 -2t30 -1h41l20 -20q18 -28 38.5 -61.5t37 -59.5t22.5 -35l285 -394l-20 -6v441q0 10 -3 33.5t-6.5 47.5t-5.5 33l40 -44l-113 18l5 52q16 -1 37.5 -2t41 -2
t28.5 -1q45 0 76 2t53 3l4 -57l-113 -10l41 36q-2 -12 -7.5 -34.5t-10 -49.5t-4.5 -55l-2 -540h-54l-419 592l20 6v-601q0 -69 -17.5 -111t-54 -61t-94.5 -19z" />
    <glyph glyph-name="uni01CB" unicode="&#x1cb;" horiz-adv-x="1070" 
d="M63 -5l-5 49l113 23l-39 -38q2 10 5.5 31.5t6 43t2.5 31.5v435q0 10 -3 32t-5.5 43t-3.5 28l37 -32l-115 17l5 52q19 -1 42.5 -2t43.5 -2t30 -1h41l20 -20q18 -28 38.5 -61.5t37 -59.5t22.5 -35l285 -394l-20 -6v441q0 10 -3 33.5t-6.5 47.5t-5.5 33l40 -44l-113 18l5 52
q16 -1 37.5 -2t41 -2t28.5 -1q44 0 75.5 2t53.5 3l4 -57l-113 -10l41 36q-2 -12 -8 -34.5t-10.5 -49.5t-4.5 -55l-1 -540h-54l-419 592l20 6v-433q0 -26 2 -53t4.5 -49.5t4.5 -36.5l-38 37l116 -10l-7 -53h-106q-10 0 -31.5 -1t-46 -2t-44.5 -2zM872 -235l-35 20l25.5 68
t25 70.5t18.5 60.5t7 37v42v54v239q0 13 -2.5 33.5t-6 42.5t-6.5 37l39 -46l-110 19l5 52h144l19 -18q-1 -15 -3 -41.5t-3 -55.5t-1 -53v-336q0 -11 -11 -36t-28.5 -57.5t-37.5 -67t-39 -64.5zM938 592q-28 0 -43 17t-15 45q0 29 15 46.5t43 17.5t43 -16.5t15 -47.5
q0 -28 -14.5 -45t-43.5 -17z" />
    <glyph glyph-name="uni1E48" unicode="&#x1e48;" horiz-adv-x="805" 
d="M63 -5l-5 49l113 23l-39 -38q2 10 5.5 31.5t6 43t2.5 31.5v435q0 10 -3 32t-5.5 43t-3.5 28l37 -32l-115 17l5 52q19 -1 42.5 -2t43.5 -2t30 -1h41l20 -20q18 -28 38.5 -61.5t37 -59.5t22.5 -35l285 -394l-20 -6v441q0 10 -3 33.5t-6.5 47.5t-5.5 33l40 -44l-113 18l5 52
q16 -1 37.5 -2t41 -2t28.5 -1q44 0 75.5 2t53.5 3l4 -57l-113 -10l41 36q-2 -12 -8 -34.5t-10.5 -49.5t-4.5 -55l-1 -540h-54l-419 592l20 6v-433q0 -26 2 -53t4.5 -49.5t4.5 -36.5l-38 37l116 -10l-7 -53h-106q-10 0 -31.5 -1t-46 -2t-44.5 -2zM272 -105v42h287l-4 -42
h-283z" />
    <glyph glyph-name="Ntilde" unicode="&#xd1;" horiz-adv-x="805" 
d="M63 -5l-5 49l113 23l-39 -38q2 10 5.5 31.5t6 43t2.5 31.5v435q0 10 -3 32t-5.5 43t-3.5 28l37 -32l-115 17l5 52q19 -1 42.5 -2t43.5 -2t30 -1h41l20 -20q18 -28 38.5 -61.5t37 -59.5t22.5 -35l285 -394l-20 -6v441q0 10 -3 33.5t-6.5 47.5t-5.5 33l40 -44l-113 18l5 52
q16 -1 37.5 -2t41 -2t28.5 -1q44 0 75.5 2t53.5 3l4 -57l-113 -10l41 36q-2 -12 -8 -34.5t-10.5 -49.5t-4.5 -55l-1 -540h-54l-419 592l20 6v-433q0 -26 2 -53t4.5 -49.5t4.5 -36.5l-38 37l116 -10l-7 -53h-106q-10 0 -31.5 -1t-46 -2t-44.5 -2zM262 748l-35 21
q9 22 22.5 45t29.5 39t30 16q15 0 36.5 -6t45 -14.5t45 -14.5t36.5 -6t30 18t24 34l35 -20q-9 -21 -23 -43.5t-29.5 -38.5t-30.5 -16t-36.5 6t-45 14.5t-44.5 14.5t-36 6t-30.5 -18.5t-23.5 -36.5z" />
    <glyph glyph-name="O" unicode="O" horiz-adv-x="795" 
d="M398 -15q-108 0 -180.5 46.5t-109 129.5t-36.5 191q0 109 36.5 192t109 129.5t180.5 46.5q109 0 181 -46.5t108 -129.5t36 -192q0 -108 -36 -191t-108 -129.5t-181 -46.5zM398 35q76 0 125.5 43t74 115.5t24.5 158.5q0 87 -24.5 159.5t-74 115.5t-125.5 43t-126 -43
t-74.5 -115.5t-24.5 -159.5q0 -86 24.5 -158.5t74.5 -115.5t126 -43z" />
    <glyph glyph-name="Oacute" unicode="&#xd3;" horiz-adv-x="795" 
d="M398 -15q-108 0 -180.5 46.5t-109 129.5t-36.5 191q0 109 36.5 192t109 129.5t180.5 46.5q109 0 181 -46.5t108 -129.5t36 -192q0 -108 -36 -191t-108 -129.5t-181 -46.5zM398 35q76 0 125.5 43t74 115.5t24.5 158.5q0 87 -24.5 159.5t-74 115.5t-125.5 43t-126 -43
t-74.5 -115.5t-24.5 -159.5q0 -86 24.5 -158.5t74.5 -115.5t126 -43zM320 753l-17 40l222 115l29 -62z" />
    <glyph glyph-name="Obreve" unicode="&#x14e;" horiz-adv-x="795" 
d="M398 -15q-108 0 -180.5 46.5t-109 129.5t-36.5 191q0 109 36.5 192t109 129.5t180.5 46.5q109 0 181 -46.5t108 -129.5t36 -192q0 -108 -36 -191t-108 -129.5t-181 -46.5zM398 35q76 0 125.5 43t74 115.5t24.5 158.5q0 87 -24.5 159.5t-74 115.5t-125.5 43t-126 -43
t-74.5 -115.5t-24.5 -159.5q0 -86 24.5 -158.5t74.5 -115.5t126 -43zM263 870l37 12q17 -33 43.5 -49.5t54.5 -16.5q29 0 55.5 16.5t42.5 49.5l36 -12q-13 -58 -51.5 -87.5t-82.5 -29.5t-83 29.5t-52 87.5z" />
    <glyph glyph-name="uni01D1" unicode="&#x1d1;" horiz-adv-x="795" 
d="M398 -15q-108 0 -180.5 46.5t-109 129.5t-36.5 191q0 109 36.5 192t109 129.5t180.5 46.5q109 0 181 -46.5t108 -129.5t36 -192q0 -108 -36 -191t-108 -129.5t-181 -46.5zM398 35q76 0 125.5 43t74 115.5t24.5 158.5q0 87 -24.5 159.5t-74 115.5t-125.5 43t-126 -43
t-74.5 -115.5t-24.5 -159.5q0 -86 24.5 -158.5t74.5 -115.5t126 -43zM248 878l190 -86l-33 -39h-39l-140 90zM548 878l22 -35l-141 -90h-39l-33 39z" />
    <glyph glyph-name="Ocircumflex" unicode="&#xd4;" horiz-adv-x="795" 
d="M398 -15q-108 0 -180.5 46.5t-109 129.5t-36.5 191q0 109 36.5 192t109 129.5t180.5 46.5q109 0 181 -46.5t108 -129.5t36 -192q0 -108 -36 -191t-108 -129.5t-181 -46.5zM398 35q76 0 125.5 43t74 115.5t24.5 158.5q0 87 -24.5 159.5t-74 115.5t-125.5 43t-126 -43
t-74.5 -115.5t-24.5 -159.5q0 -86 24.5 -158.5t74.5 -115.5t126 -43zM548 753l-190 86l33 39h39l140 -90zM248 753l-22 35l141 90h39l33 -39z" />
    <glyph glyph-name="uni1ED0" unicode="&#x1ed0;" horiz-adv-x="795" 
d="M398 -15q-108 0 -180.5 46.5t-109 129.5t-36.5 191q0 109 36.5 192t109 129.5t180.5 46.5q109 0 181 -46.5t108 -129.5t36 -192q0 -108 -36 -191t-108 -129.5t-181 -46.5zM398 35q76 0 125.5 43t74 115.5t24.5 158.5q0 87 -24.5 159.5t-74 115.5t-125.5 43t-126 -43
t-74.5 -115.5t-24.5 -159.5q0 -86 24.5 -158.5t74.5 -115.5t126 -43zM530 748l-175 100l36 32h35l135 -102zM267 748l-30 30l134 102h35l37 -32zM326 880l-24 35l186 98l38 -55z" />
    <glyph glyph-name="uni1ED8" unicode="&#x1ed8;" horiz-adv-x="795" 
d="M398 -15q-108 0 -180.5 46.5t-109 129.5t-36.5 191q0 109 36.5 192t109 129.5t180.5 46.5q109 0 181 -46.5t108 -129.5t36 -192q0 -108 -36 -191t-108 -129.5t-181 -46.5zM398 35q76 0 125.5 43t74 115.5t24.5 158.5q0 87 -24.5 159.5t-74 115.5t-125.5 43t-126 -43
t-74.5 -115.5t-24.5 -159.5q0 -86 24.5 -158.5t74.5 -115.5t126 -43zM548 753l-190 86l33 39h39l140 -90zM248 753l-22 35l141 90h39l33 -39zM398 -209q-28 0 -43 17t-15 45q0 29 15 46.5t43 17.5t43 -16.5t15 -47.5q0 -28 -14.5 -45t-43.5 -17z" />
    <glyph glyph-name="uni1ED2" unicode="&#x1ed2;" horiz-adv-x="795" 
d="M398 -15q-108 0 -180.5 46.5t-109 129.5t-36.5 191q0 109 36.5 192t109 129.5t180.5 46.5q109 0 181 -46.5t108 -129.5t36 -192q0 -108 -36 -191t-108 -129.5t-181 -46.5zM398 35q76 0 125.5 43t74 115.5t24.5 158.5q0 87 -24.5 159.5t-74 115.5t-125.5 43t-126 -43
t-74.5 -115.5t-24.5 -159.5q0 -86 24.5 -158.5t74.5 -115.5t126 -43zM526 748l-175 100l36 32h35l135 -102zM263 748l-30 30l134 102h35l37 -32zM470 892l-192 96l43 51l176 -114z" />
    <glyph glyph-name="uni1ED4" unicode="&#x1ed4;" horiz-adv-x="795" 
d="M398 -15q-108 0 -180.5 46.5t-109 129.5t-36.5 191q0 109 36.5 192t109 129.5t180.5 46.5q109 0 181 -46.5t108 -129.5t36 -192q0 -108 -36 -191t-108 -129.5t-181 -46.5zM398 35q76 0 125.5 43t74 115.5t24.5 158.5q0 87 -24.5 159.5t-74 115.5t-125.5 43t-126 -43
t-74.5 -115.5t-24.5 -159.5q0 -86 24.5 -158.5t74.5 -115.5t126 -43zM529 748l-175 100l36 32h35l135 -102zM266 748l-30 30l134 102h35l37 -32zM399 899q-31 0 -37 13t-6 21q0 15 10.5 23t24 14t24 13.5t10.5 19.5q0 9 -8.5 14.5t-27.5 5.5q-10 0 -22 -2.5t-22 -4.5l-16 39
q4 2 25.5 7.5t47.5 5.5q32 0 60 -16t28 -48q0 -18 -10.5 -29.5t-25 -19t-25 -14t-10.5 -15.5q0 -11 6 -21q-3 -2 -10 -4t-16 -2z" />
    <glyph glyph-name="uni1ED6" unicode="&#x1ed6;" horiz-adv-x="795" 
d="M398 -15q-108 0 -180.5 46.5t-109 129.5t-36.5 191q0 109 36.5 192t109 129.5t180.5 46.5q109 0 181 -46.5t108 -129.5t36 -192q0 -108 -36 -191t-108 -129.5t-181 -46.5zM398 35q76 0 125.5 43t74 115.5t24.5 158.5q0 87 -24.5 159.5t-74 115.5t-125.5 43t-126 -43
t-74.5 -115.5t-24.5 -159.5q0 -86 24.5 -158.5t74.5 -115.5t126 -43zM542 748l-175 100l36 32h35l135 -102zM279 748l-30 30l134 102h35l37 -32zM284 882l-30 18q9 20 21.5 42t27 37t27.5 15q18 0 44.5 -10t53.5 -20t45 -10q15 0 29.5 16t22.5 32l29 -17q-1 -3 -8 -17.5
t-17.5 -31t-23.5 -29t-26 -12.5q-18 0 -44.5 10l-53 20t-44.5 10q-15 0 -30 -18t-23 -35z" />
    <glyph glyph-name="uni020C" unicode="&#x20c;" horiz-adv-x="795" 
d="M398 -15q-108 0 -180.5 46.5t-109 129.5t-36.5 191q0 109 36.5 192t109 129.5t180.5 46.5q109 0 181 -46.5t108 -129.5t36 -192q0 -108 -36 -191t-108 -129.5t-181 -46.5zM398 35q76 0 125.5 43t74 115.5t24.5 158.5q0 87 -24.5 159.5t-74 115.5t-125.5 43t-126 -43
t-74.5 -115.5t-24.5 -159.5q0 -86 24.5 -158.5t74.5 -115.5t126 -43zM529 753l-205 148l44 52l187 -165zM406 753l-227 111l34 60l214 -132z" />
    <glyph glyph-name="Odieresis" unicode="&#xd6;" horiz-adv-x="795" 
d="M398 -15q-108 0 -180.5 46.5t-109 129.5t-36.5 191q0 109 36.5 192t109 129.5t180.5 46.5q109 0 181 -46.5t108 -129.5t36 -192q0 -108 -36 -191t-108 -129.5t-181 -46.5zM398 35q76 0 125.5 43t74 115.5t24.5 158.5q0 87 -24.5 159.5t-74 115.5t-125.5 43t-126 -43
t-74.5 -115.5t-24.5 -159.5q0 -86 24.5 -158.5t74.5 -115.5t126 -43zM489 753q-26 0 -40.5 15t-14.5 42q0 25 15 40t40 15t39.5 -14t14.5 -41t-14 -42t-40 -15zM308 753q-26 0 -40.5 15t-14.5 42q0 25 15 40t40 15q24 0 39 -14t15 -41t-14.5 -42t-39.5 -15z" />
    <glyph glyph-name="uni022A" unicode="&#x22a;" horiz-adv-x="795" 
d="M398 -15q-108 0 -180.5 46.5t-109 129.5t-36.5 191q0 109 36.5 192t109 129.5t180.5 46.5q109 0 181 -46.5t108 -129.5t36 -192q0 -108 -36 -191t-108 -129.5t-181 -46.5zM398 35q76 0 125.5 43t74 115.5t24.5 158.5q0 87 -24.5 159.5t-74 115.5t-125.5 43t-126 -43
t-74.5 -115.5t-24.5 -159.5q0 -86 24.5 -158.5t74.5 -115.5t126 -43zM485 753q-23 0 -35.5 15.5t-12.5 38.5q0 25 12.5 40.5t35.5 15.5t35.5 -14.5t12.5 -41.5q0 -24 -12.5 -39t-35.5 -15zM308 753q-23 0 -36 15t-13 39q0 26 13 41t36 15t35 -14.5t12 -41.5q0 -23 -12 -38.5
t-35 -15.5zM247 900v54h300l-5 -54h-295z" />
    <glyph glyph-name="uni0230" unicode="&#x230;" horiz-adv-x="795" 
d="M398 -15q-108 0 -180.5 46.5t-109 129.5t-36.5 191q0 109 36.5 192t109 129.5t180.5 46.5q109 0 181 -46.5t108 -129.5t36 -192q0 -108 -36 -191t-108 -129.5t-181 -46.5zM398 35q76 0 125.5 43t74 115.5t24.5 158.5q0 87 -24.5 159.5t-74 115.5t-125.5 43t-126 -43
t-74.5 -115.5t-24.5 -159.5q0 -86 24.5 -158.5t74.5 -115.5t126 -43zM389 753q-23 0 -36 15t-13 39q0 26 13 41t36 15t35 -14.5t12 -41.5q0 -23 -12 -38.5t-35 -15.5zM237 898v54h300l-5 -54h-295z" />
    <glyph glyph-name="uni1ECC" unicode="&#x1ecc;" horiz-adv-x="795" 
d="M398 -15q-108 0 -180.5 46.5t-109 129.5t-36.5 191q0 109 36.5 192t109 129.5t180.5 46.5q109 0 181 -46.5t108 -129.5t36 -192q0 -108 -36 -191t-108 -129.5t-181 -46.5zM398 35q76 0 125.5 43t74 115.5t24.5 158.5q0 87 -24.5 159.5t-74 115.5t-125.5 43t-126 -43
t-74.5 -115.5t-24.5 -159.5q0 -86 24.5 -158.5t74.5 -115.5t126 -43zM398 -209q-28 0 -43 17t-15 45q0 29 15 46.5t43 17.5t43 -16.5t15 -47.5q0 -28 -14.5 -45t-43.5 -17z" />
    <glyph glyph-name="Ograve" unicode="&#xd2;" horiz-adv-x="795" 
d="M398 -15q-108 0 -180.5 46.5t-109 129.5t-36.5 191q0 109 36.5 192t109 129.5t180.5 46.5q109 0 181 -46.5t108 -129.5t36 -192q0 -108 -36 -191t-108 -129.5t-181 -46.5zM398 35q76 0 125.5 43t74 115.5t24.5 158.5q0 87 -24.5 159.5t-74 115.5t-125.5 43t-126 -43
t-74.5 -115.5t-24.5 -159.5q0 -86 24.5 -158.5t74.5 -115.5t126 -43zM493 753l-234 93l29 62l222 -115z" />
    <glyph glyph-name="uni1ECE" unicode="&#x1ece;" horiz-adv-x="795" 
d="M398 -15q-108 0 -180.5 46.5t-109 129.5t-36.5 191q0 109 36.5 192t109 129.5t180.5 46.5q109 0 181 -46.5t108 -129.5t36 -192q0 -108 -36 -191t-108 -129.5t-181 -46.5zM398 35q76 0 125.5 43t74 115.5t24.5 158.5q0 87 -24.5 159.5t-74 115.5t-125.5 43t-126 -43
t-74.5 -115.5t-24.5 -159.5q0 -86 24.5 -158.5t74.5 -115.5t126 -43zM373 748q-20 0 -29.5 10.5t-9.5 20.5q0 17 9 26t21 14.5t21 11.5t9 16q0 11 -8 15.5t-20 4.5t-24 -3.5t-23 -8.5l-16 39q15 5 29.5 8.5t40.5 3.5q42 0 63.5 -14.5t21.5 -34.5q0 -18 -10 -29.5t-22.5 -20
t-22.5 -17t-10 -19.5q0 -9 6 -17q-4 -2 -11 -4t-15 -2z" />
    <glyph glyph-name="Ohorn" unicode="&#x1a0;" horiz-adv-x="823" 
d="M398 -15q-108 0 -180.5 46.5t-109 129.5t-36.5 191q0 109 36.5 192t109 129.5t180.5 46.5q109 0 181 -46.5t108 -129.5t36 -192q0 -108 -36 -191t-108 -129.5t-181 -46.5zM398 35q76 0 125.5 43t74 115.5t24.5 158.5q0 87 -24.5 159.5t-74 115.5t-125.5 43t-126 -43
t-74.5 -115.5t-24.5 -159.5q0 -86 24.5 -158.5t74.5 -115.5t126 -43zM577 593v37h30q52 0 68 13t16 33q0 17 -7.5 39.5t-15.5 37.5l87 28q4 -24 6 -47.5t2 -44.5q0 -28 -12 -49.5t-41.5 -34t-83.5 -12.5h-49z" />
    <glyph glyph-name="uni1EDA" unicode="&#x1eda;" horiz-adv-x="795" 
d="M398 -15q-108 0 -180.5 46.5t-109 129.5t-36.5 191q0 109 36.5 192t109 129.5t180.5 46.5q109 0 181 -46.5t108 -129.5t36 -192q0 -108 -36 -191t-108 -129.5t-181 -46.5zM398 35q76 0 125.5 43t74 115.5t24.5 158.5q0 87 -24.5 159.5t-74 115.5t-125.5 43t-126 -43
t-74.5 -115.5t-24.5 -159.5q0 -86 24.5 -158.5t74.5 -115.5t126 -43zM577 593v37h30q52 0 68 13t16 33q0 17 -7.5 39.5t-15.5 37.5l87 28q4 -24 6 -47.5t2 -44.5q0 -28 -12 -49.5t-41.5 -34t-83.5 -12.5h-49zM320 753l-17 40l222 115l29 -62z" />
    <glyph glyph-name="uni1EE2" unicode="&#x1ee2;" horiz-adv-x="823" 
d="M398 -15q-108 0 -180.5 46.5t-109 129.5t-36.5 191q0 109 36.5 192t109 129.5t180.5 46.5q109 0 181 -46.5t108 -129.5t36 -192q0 -108 -36 -191t-108 -129.5t-181 -46.5zM398 35q76 0 125.5 43t74 115.5t24.5 158.5q0 87 -24.5 159.5t-74 115.5t-125.5 43t-126 -43
t-74.5 -115.5t-24.5 -159.5q0 -86 24.5 -158.5t74.5 -115.5t126 -43zM577 593v37h30q52 0 68 13t16 33q0 17 -7.5 39.5t-15.5 37.5l87 28q4 -24 6 -47.5t2 -44.5q0 -28 -12 -49.5t-41.5 -34t-83.5 -12.5h-49zM397 -209q-28 0 -43 17t-15 45q0 29 15 46.5t43 17.5t43 -16.5
t15 -47.5q0 -28 -14.5 -45t-43.5 -17z" />
    <glyph glyph-name="uni1EDC" unicode="&#x1edc;" horiz-adv-x="823" 
d="M398 -15q-108 0 -180.5 46.5t-109 129.5t-36.5 191q0 109 36.5 192t109 129.5t180.5 46.5q109 0 181 -46.5t108 -129.5t36 -192q0 -108 -36 -191t-108 -129.5t-181 -46.5zM398 35q76 0 125.5 43t74 115.5t24.5 158.5q0 87 -24.5 159.5t-74 115.5t-125.5 43t-126 -43
t-74.5 -115.5t-24.5 -159.5q0 -86 24.5 -158.5t74.5 -115.5t126 -43zM577 593v37h30q52 0 68 13t16 33q0 17 -7.5 39.5t-15.5 37.5l87 28q4 -24 6 -47.5t2 -44.5q0 -28 -12 -49.5t-41.5 -34t-83.5 -12.5h-49zM492 738l-234 93l29 62l222 -115z" />
    <glyph glyph-name="uni1EDE" unicode="&#x1ede;" horiz-adv-x="823" 
d="M398 -15q-108 0 -180.5 46.5t-109 129.5t-36.5 191q0 109 36.5 192t109 129.5t180.5 46.5q109 0 181 -46.5t108 -129.5t36 -192q0 -108 -36 -191t-108 -129.5t-181 -46.5zM398 35q76 0 125.5 43t74 115.5t24.5 158.5q0 87 -24.5 159.5t-74 115.5t-125.5 43t-126 -43
t-74.5 -115.5t-24.5 -159.5q0 -86 24.5 -158.5t74.5 -115.5t126 -43zM577 593v37h30q52 0 68 13t16 33q0 17 -7.5 39.5t-15.5 37.5l87 28q4 -24 6 -47.5t2 -44.5q0 -28 -12 -49.5t-41.5 -34t-83.5 -12.5h-49zM390 738q-20 0 -29.5 10.5t-9.5 20.5q0 17 9 26t21 14.5t21 11.5
t9 16q0 11 -8 15.5t-20 4.5t-24 -3.5t-23 -8.5l-16 39q15 5 29.5 8.5t40.5 3.5q42 0 63.5 -14.5t21.5 -34.5q0 -18 -10 -29.5t-22.5 -20t-22.5 -17t-10 -19.5q0 -9 6 -17q-4 -2 -11 -4t-15 -2z" />
    <glyph glyph-name="uni1EE0" unicode="&#x1ee0;" horiz-adv-x="823" 
d="M398 -15q-108 0 -180.5 46.5t-109 129.5t-36.5 191q0 109 36.5 192t109 129.5t180.5 46.5q109 0 181 -46.5t108 -129.5t36 -192q0 -108 -36 -191t-108 -129.5t-181 -46.5zM398 35q76 0 125.5 43t74 115.5t24.5 158.5q0 87 -24.5 159.5t-74 115.5t-125.5 43t-126 -43
t-74.5 -115.5t-24.5 -159.5q0 -86 24.5 -158.5t74.5 -115.5t126 -43zM577 593v37h30q52 0 68 13t16 33q0 17 -7.5 39.5t-15.5 37.5l87 28q4 -24 6 -47.5t2 -44.5q0 -28 -12 -49.5t-41.5 -34t-83.5 -12.5h-49zM265 733l-35 21q9 22 22.5 45t29.5 39t30 16q15 0 36.5 -6
t45 -14.5t45 -14.5t36.5 -6t30 18t24 34l35 -20q-9 -21 -23 -43.5t-29.5 -38.5t-30.5 -16t-36.5 6t-45 14.5t-44.5 14.5t-36 6t-30.5 -18.5t-23.5 -36.5z" />
    <glyph glyph-name="Ohungarumlaut" unicode="&#x150;" horiz-adv-x="795" 
d="M398 -15q-108 0 -180.5 46.5t-109 129.5t-36.5 191q0 109 36.5 192t109 129.5t180.5 46.5q109 0 181 -46.5t108 -129.5t36 -192q0 -108 -36 -191t-108 -129.5t-181 -46.5zM398 35q76 0 125.5 43t74 115.5t24.5 158.5q0 87 -24.5 159.5t-74 115.5t-125.5 43t-126 -43
t-74.5 -115.5t-24.5 -159.5q0 -86 24.5 -158.5t74.5 -115.5t126 -43zM288 753l-22 37l203 145l38 -56zM463 753l-20 39l214 132l34 -60z" />
    <glyph glyph-name="uni020E" unicode="&#x20e;" horiz-adv-x="795" 
d="M398 -15q-108 0 -180.5 46.5t-109 129.5t-36.5 191q0 109 36.5 192t109 129.5t180.5 46.5q109 0 181 -46.5t108 -129.5t36 -192q0 -108 -36 -191t-108 -129.5t-181 -46.5zM398 35q76 0 125.5 43t74 115.5t24.5 158.5q0 87 -24.5 159.5t-74 115.5t-125.5 43t-126 -43
t-74.5 -115.5t-24.5 -159.5q0 -86 24.5 -158.5t74.5 -115.5t126 -43zM533 764l-37 -12q-16 33 -42.5 49.5t-55.5 16.5q-28 0 -54.5 -16.5t-43.5 -49.5l-36 12q13 59 52 88t82 29q44 0 83 -29t52 -88z" />
    <glyph glyph-name="Omacron" unicode="&#x14c;" horiz-adv-x="795" 
d="M398 -15q-108 0 -180.5 46.5t-109 129.5t-36.5 191q0 109 36.5 192t109 129.5t180.5 46.5q109 0 181 -46.5t108 -129.5t36 -192q0 -108 -36 -191t-108 -129.5t-181 -46.5zM398 35q76 0 125.5 43t74 115.5t24.5 158.5q0 87 -24.5 159.5t-74 115.5t-125.5 43t-126 -43
t-74.5 -115.5t-24.5 -159.5q0 -86 24.5 -158.5t74.5 -115.5t126 -43zM238 753v54h320l-5 -54h-315z" />
    <glyph glyph-name="uni1E52" unicode="&#x1e52;" horiz-adv-x="795" 
d="M398 -15q-108 0 -180.5 46.5t-109 129.5t-36.5 191q0 109 36.5 192t109 129.5t180.5 46.5q109 0 181 -46.5t108 -129.5t36 -192q0 -108 -36 -191t-108 -129.5t-181 -46.5zM398 35q76 0 125.5 43t74 115.5t24.5 158.5q0 87 -24.5 159.5t-74 115.5t-125.5 43t-126 -43
t-74.5 -115.5t-24.5 -159.5q0 -86 24.5 -158.5t74.5 -115.5t126 -43zM239 753v54h300l-5 -54h-295zM327 834l-24 35l186 98l38 -55z" />
    <glyph glyph-name="uni1E50" unicode="&#x1e50;" horiz-adv-x="795" 
d="M398 -15q-108 0 -180.5 46.5t-109 129.5t-36.5 191q0 109 36.5 192t109 129.5t180.5 46.5q109 0 181 -46.5t108 -129.5t36 -192q0 -108 -36 -191t-108 -129.5t-181 -46.5zM398 35q76 0 125.5 43t74 115.5t24.5 158.5q0 87 -24.5 159.5t-74 115.5t-125.5 43t-126 -43
t-74.5 -115.5t-24.5 -159.5q0 -86 24.5 -158.5t74.5 -115.5t126 -43zM254 753v54h300l-5 -54h-295zM443 819l-192 96l43 51l176 -114z" />
    <glyph glyph-name="uni01EA" unicode="&#x1ea;" horiz-adv-x="795" 
d="M398 -15q-108 0 -180.5 46.5t-109 129.5t-36.5 191q0 109 36.5 192t109 129.5t180.5 46.5q109 0 181 -46.5t108 -129.5t36 -192q0 -108 -36 -191t-108 -129.5t-181 -46.5zM398 35q76 0 125.5 43t74 115.5t24.5 158.5q0 87 -24.5 159.5t-74 115.5t-125.5 43t-126 -43
t-74.5 -115.5t-24.5 -159.5q0 -86 24.5 -158.5t74.5 -115.5t126 -43zM450 -210q-25 0 -52 8t-45.5 28t-18.5 55q0 33 23.5 65.5t84.5 62.5l65 -9q-47 -19 -74 -53t-27 -62q0 -19 14.5 -32.5t45.5 -13.5q8 0 17 1.5t17 3.5l11 -43q-13 -5 -29.5 -8t-31.5 -3z" />
    <glyph glyph-name="Oslash" unicode="&#xd8;" horiz-adv-x="795" 
d="M163 -136l-39 22l501 952l40 -22zM398 -15q-108 0 -180.5 46.5t-109 129.5t-36.5 191q0 109 36.5 192t109 129.5t180.5 46.5q109 0 181 -46.5t108 -129.5t36 -192q0 -108 -36 -191t-108 -129.5t-181 -46.5zM398 35q76 0 125.5 43t74 115.5t24.5 158.5q0 87 -24.5 159.5
t-74 115.5t-125.5 43t-126 -43t-74.5 -115.5t-24.5 -159.5q0 -86 24.5 -158.5t74.5 -115.5t126 -43z" />
    <glyph glyph-name="Oslashacute" unicode="&#x1fe;" horiz-adv-x="795" 
d="M163 -136l-39 22l501 952l40 -22zM398 -15q-108 0 -180.5 46.5t-109 129.5t-36.5 191q0 109 36.5 192t109 129.5t180.5 46.5q109 0 181 -46.5t108 -129.5t36 -192q0 -108 -36 -191t-108 -129.5t-181 -46.5zM398 35q76 0 125.5 43t74 115.5t24.5 158.5q0 87 -24.5 159.5
t-74 115.5t-125.5 43t-126 -43t-74.5 -115.5t-24.5 -159.5q0 -86 24.5 -158.5t74.5 -115.5t126 -43zM320 738l-17 40l222 115l29 -62z" />
    <glyph glyph-name="Otilde" unicode="&#xd5;" horiz-adv-x="795" 
d="M398 -15q-108 0 -180.5 46.5t-109 129.5t-36.5 191q0 109 36.5 192t109 129.5t180.5 46.5q109 0 181 -46.5t108 -129.5t36 -192q0 -108 -36 -191t-108 -129.5t-181 -46.5zM398 35q76 0 125.5 43t74 115.5t24.5 158.5q0 87 -24.5 159.5t-74 115.5t-125.5 43t-126 -43
t-74.5 -115.5t-24.5 -159.5q0 -86 24.5 -158.5t74.5 -115.5t126 -43zM266 748l-35 21q9 22 22.5 45t29.5 39t30 16q15 0 36.5 -6t45 -14.5t45 -14.5t36.5 -6t30 18t24 34l35 -20q-9 -21 -23 -43.5t-29.5 -38.5t-30.5 -16t-36.5 6t-45 14.5t-44.5 14.5t-36 6t-30.5 -18.5
t-23.5 -36.5z" />
    <glyph glyph-name="uni1E4C" unicode="&#x1e4c;" horiz-adv-x="795" 
d="M398 -15q-108 0 -180.5 46.5t-109 129.5t-36.5 191q0 109 36.5 192t109 129.5t180.5 46.5q109 0 181 -46.5t108 -129.5t36 -192q0 -108 -36 -191t-108 -129.5t-181 -46.5zM398 35q76 0 125.5 43t74 115.5t24.5 158.5q0 87 -24.5 159.5t-74 115.5t-125.5 43t-126 -43
t-74.5 -115.5t-24.5 -159.5q0 -86 24.5 -158.5t74.5 -115.5t126 -43zM279 743l-30 18q9 20 21.5 42t27 37t27.5 15q18 0 44.5 -10t53.5 -20t45 -10q15 0 29.5 16t22.5 32l29 -17q-1 -3 -8 -17.5t-17.5 -31t-23.5 -29t-26 -12.5q-18 0 -44.5 10l-53 20t-44.5 10
q-15 0 -30 -18t-23 -35zM339 865l-24 35l186 98l38 -55z" />
    <glyph glyph-name="uni1E4E" unicode="&#x1e4e;" horiz-adv-x="795" 
d="M398 -15q-108 0 -180.5 46.5t-109 129.5t-36.5 191q0 109 36.5 192t109 129.5t180.5 46.5q109 0 181 -46.5t108 -129.5t36 -192q0 -108 -36 -191t-108 -129.5t-181 -46.5zM398 35q76 0 125.5 43t74 115.5t24.5 158.5q0 87 -24.5 159.5t-74 115.5t-125.5 43t-126 -43
t-74.5 -115.5t-24.5 -159.5q0 -86 24.5 -158.5t74.5 -115.5t126 -43zM283 743l-30 18q9 20 21.5 42t27 37t27.5 15q18 0 44.5 -10t53.5 -20t45 -10q15 0 29.5 16t22.5 32l29 -17q-1 -3 -8 -17.5t-17.5 -31t-23.5 -29t-26 -12.5q-18 0 -44.5 10l-53 20t-44.5 10
q-15 0 -30 -18t-23 -35zM493 895q-23 0 -35.5 15.5t-12.5 38.5q0 25 12.5 40.5t35.5 15.5t35.5 -14.5t12.5 -41.5q0 -24 -12.5 -39t-35.5 -15zM316 895q-23 0 -36 15t-13 39q0 26 13 41t36 15t35 -14.5t12 -41.5q0 -23 -12 -38.5t-35 -15.5z" />
    <glyph glyph-name="uni022C" unicode="&#x22c;" horiz-adv-x="795" 
d="M398 -15q-108 0 -180.5 46.5t-109 129.5t-36.5 191q0 109 36.5 192t109 129.5t180.5 46.5q109 0 181 -46.5t108 -129.5t36 -192q0 -108 -36 -191t-108 -129.5t-181 -46.5zM398 35q76 0 125.5 43t74 115.5t24.5 158.5q0 87 -24.5 159.5t-74 115.5t-125.5 43t-126 -43
t-74.5 -115.5t-24.5 -159.5q0 -86 24.5 -158.5t74.5 -115.5t126 -43zM275 742l-30 18q9 20 21.5 42t27 37t27.5 15q18 0 44.5 -10t53.5 -20t45 -10q15 0 29.5 16t22.5 32l29 -17q-1 -3 -8 -17.5t-17.5 -31t-23.5 -29t-26 -12.5q-18 0 -44.5 10l-53 20t-44.5 10
q-15 0 -30 -18t-23 -35zM247 904v54h300l-5 -54h-295z" />
    <glyph glyph-name="OE" unicode="&#x152;" horiz-adv-x="989" 
d="M397 -5q-108 0 -180.5 45.5t-109 126t-36.5 185.5q0 106 36.5 186.5t109 126t180.5 45.5q35 0 70 -1.5t69 -3.5l63 -28q-1 -7 -3.5 -31t-4.5 -53t-2 -53v-375q0 -24 2 -54t5 -56.5t5 -41.5l-48 -13q-39 -1 -78.5 -3t-77.5 -2zM498 23q2 10 3 33t1.5 46t0.5 33v435v30
t-0.5 41t-3.5 41l29 -31q-33 5 -67 7t-64 2q-75 0 -125 -42t-75 -111.5t-25 -154.5q0 -83 24.5 -152t74.5 -111t126 -44q30 -1 64 0.5t67 10.5zM889 -4q-19 1 -42.5 2t-43 1.5t-28.5 0.5h-236v55h206q30 0 59.5 4.5t42.5 7.5l-30 -24q11 14 23 30.5t14 26.5l15 68l54 -5
l-15 -149zM781 266l-14 104l36 -41q-11 2 -33 4.5t-44 4.5t-35 2h-152v54h172q21 0 49 4.5t38 5.5l-31 -40l14 105l44 -5v-84q0 -54 3 -108zM845 557l-11 55q-1 8 -14 25t-25 27l33 -19q-14 2 -42 4t-54 2h-193v54h223q9 0 29 0.5t43 2t42 2.5l19 -18l7 -130z" />
    <glyph glyph-name="P" unicode="P" horiz-adv-x="627" 
d="M61 -5l-5 49l114 23l-39 -39q2 9 5 30.5t6 44t3 32.5v435q0 11 -2.5 32.5t-6 43.5t-5.5 32l39 -38l-112 18l5 52q19 -1 42 -2t43.5 -2t29.5 -1l64 -27q-1 -8 -3.5 -31t-5 -52t-2.5 -55v-375q0 -26 2 -52.5t5 -49t5 -35.5l-39 35l136 -10l-7 -53h-138q-12 0 -35 -1
t-49.5 -2t-49.5 -2zM323 293q-42 0 -79.5 1.5t-81.5 3.5v56q35 -4 71 -9t71 -5q79 0 126.5 40t47.5 122q0 78 -47.5 119t-126.5 41q-21 0 -42 -1t-41.5 -2.5t-42.5 -3.5v50q41 0 83.5 2.5t83.5 2.5q104 0 163 -52t59 -156q0 -67 -33.5 -113.5t-88.5 -71t-122 -24.5z" />
    <glyph glyph-name="Thorn" unicode="&#xde;" horiz-adv-x="612" 
d="M61 -4l-5 49l114 23l-39 -39q2 9 5 30.5t6 44t3 32.5v435q0 11 -2.5 33t-6 44t-5.5 31l41 -38l-114 17l5 52q19 -1 42 -2t43.5 -2t29.5 -1q45 0 75.5 2t59.5 4l4 -57l-113 -10l38 35q-1 -8 -4 -31t-5 -52t-2 -55v-376q0 -25 2 -51.5t5 -49t5 -35.5l-39 35l126 -10l-7 -53
h-128q-8 0 -30 -1t-47 -1.5t-42 -1.5t-15 -1zM169 168v51q16 -1 39 -1.5t46.5 -1t37.5 -0.5q78 0 126 36.5t48 108.5q0 74 -48 111.5t-127 37.5q-10 0 -34 -1t-49.5 -2t-38.5 -3v48q21 2 54 3t64 2t46 1q104 0 163 -49.5t59 -147.5q0 -61 -33.5 -104.5t-89.5 -66.5t-123 -23
q-14 0 -42 0.5t-56 0.5h-42z" />
    <glyph glyph-name="Q" unicode="Q" horiz-adv-x="796" 
d="M398 -15q-108 0 -180.5 46.5t-109 129.5t-36.5 191q0 109 36.5 192t109 129.5t180.5 46.5q109 0 181 -46.5t108 -129.5t36 -192q0 -108 -36 -191t-108 -129.5t-181 -46.5zM691 -224l-285 231l66 12l118 -81q6 -4 32.5 -16t61 -27.5t64.5 -28.5zM398 35q76 0 125.5 43
t74 115.5t24.5 158.5q0 87 -24.5 159.5t-74 115.5t-125.5 43t-126 -43t-74.5 -115.5t-24.5 -159.5q0 -86 24.5 -158.5t74.5 -115.5t126 -43z" />
    <glyph glyph-name="R" unicode="R" horiz-adv-x="693" 
d="M61 -5l-5 49l114 23l-39 -39q2 9 5 30.5t6 44t3 32.5v435q0 11 -2.5 32.5t-6 43.5t-5.5 32l39 -38l-112 18l5 52q19 -1 42 -2t43.5 -2t29.5 -1l64 -27q-1 -8 -3.5 -31t-5 -52t-2.5 -55v-375q0 -26 2 -52.5t5 -49t5 -35.5l-39 35l127 -10l-7 -53h-129q-12 0 -35 -1
t-49.5 -2t-49.5 -2zM484 0q-9 20 -20.5 44t-21.5 44l-14 28l-121 229l94 4q27 -53 53.5 -101t46 -80t22.5 -37q7 -11 22 -32.5t28 -38.5l73 -7l-7 -53h-155zM323 303q-40 0 -80 1t-80 3v57q35 -4 70 -9t70 -5q78 0 125 39.5t47 118.5q0 76 -47 115t-125 39q-18 0 -39 -1
t-42.5 -3.5t-43.5 -5.5v53q41 0 83 2.5t83 2.5q69 0 118 -22.5t75.5 -67.5t26.5 -112q0 -65 -32.5 -111t-87.5 -70t-121 -24z" />
    <glyph glyph-name="Racute" unicode="&#x154;" horiz-adv-x="693" 
d="M61 -5l-5 49l114 23l-39 -39q2 9 5 30.5t6 44t3 32.5v435q0 11 -2.5 32.5t-6 43.5t-5.5 32l39 -38l-112 18l5 52q19 -1 42 -2t43.5 -2t29.5 -1l64 -27q-1 -8 -3.5 -31t-5 -52t-2.5 -55v-375q0 -26 2 -52.5t5 -49t5 -35.5l-39 35l127 -10l-7 -53h-129q-12 0 -35 -1
t-49.5 -2t-49.5 -2zM484 0q-9 20 -20.5 44t-21.5 44l-14 28l-121 229l94 4q27 -53 53.5 -101t46 -80t22.5 -37q7 -11 22 -32.5t28 -38.5l73 -7l-7 -53h-155zM323 303q-40 0 -80 1t-80 3v57q35 -4 70 -9t70 -5q78 0 125 39.5t47 118.5q0 76 -47 115t-125 39q-18 0 -39 -1
t-42.5 -3.5t-43.5 -5.5v53q41 0 83 2.5t83 2.5q69 0 118 -22.5t75.5 -67.5t26.5 -112q0 -65 -32.5 -111t-87.5 -70t-121 -24zM236 753l-17 40l222 115l29 -62z" />
    <glyph glyph-name="Rcaron" unicode="&#x158;" horiz-adv-x="693" 
d="M61 -5l-5 49l114 23l-39 -39q2 9 5 30.5t6 44t3 32.5v435q0 11 -2.5 32.5t-6 43.5t-5.5 32l39 -38l-112 18l5 52q19 -1 42 -2t43.5 -2t29.5 -1l64 -27q-1 -8 -3.5 -31t-5 -52t-2.5 -55v-375q0 -26 2 -52.5t5 -49t5 -35.5l-39 35l127 -10l-7 -53h-129q-12 0 -35 -1
t-49.5 -2t-49.5 -2zM484 0q-9 20 -20.5 44t-21.5 44l-14 28l-121 229l94 4q27 -53 53.5 -101t46 -80t22.5 -37q7 -11 22 -32.5t28 -38.5l73 -7l-7 -53h-155zM323 303q-40 0 -80 1t-80 3v57q35 -4 70 -9t70 -5q78 0 125 39.5t47 118.5q0 76 -47 115t-125 39q-18 0 -39 -1
t-42.5 -3.5t-43.5 -5.5v53q41 0 83 2.5t83 2.5q69 0 118 -22.5t75.5 -67.5t26.5 -112q0 -65 -32.5 -111t-87.5 -70t-121 -24zM164 878l190 -86l-33 -39h-39l-140 90zM464 878l22 -35l-141 -90h-39l-33 39z" />
    <glyph glyph-name="uni0156" unicode="&#x156;" horiz-adv-x="693" 
d="M61 -5l-5 49l114 23l-39 -39q2 9 5 30.5t6 44t3 32.5v435q0 11 -2.5 32.5t-6 43.5t-5.5 32l39 -38l-112 18l5 52q19 -1 42 -2t43.5 -2t29.5 -1l64 -27q-1 -8 -3.5 -31t-5 -52t-2.5 -55v-375q0 -26 2 -52.5t5 -49t5 -35.5l-39 35l127 -10l-7 -53h-129q-12 0 -35 -1
t-49.5 -2t-49.5 -2zM484 0q-9 20 -20.5 44t-21.5 44l-14 28l-121 229l94 4q27 -53 53.5 -101t46 -80t22.5 -37q7 -11 22 -32.5t28 -38.5l73 -7l-7 -53h-155zM323 303q-40 0 -80 1t-80 3v57q35 -4 70 -9t70 -5q78 0 125 39.5t47 118.5q0 76 -47 115t-125 39q-18 0 -39 -1
t-42.5 -3.5t-43.5 -5.5v53q41 0 83 2.5t83 2.5q69 0 118 -22.5t75.5 -67.5t26.5 -112q0 -65 -32.5 -111t-87.5 -70t-121 -24zM361 -248l-36 12q3 11 7.5 31t6.5 39.5t-5 27.5l27 -23q-8 0 -20.5 4t-22.5 16.5t-10 35.5q0 29 15.5 42t32.5 13q51 0 51 -63q0 -20 -7.5 -45
t-18 -49t-20.5 -41z" />
    <glyph glyph-name="uni0210" unicode="&#x210;" horiz-adv-x="693" 
d="M61 -5l-5 49l114 23l-39 -39q2 9 5 30.5t6 44t3 32.5v435q0 11 -2.5 32.5t-6 43.5t-5.5 32l39 -38l-112 18l5 52q19 -1 42 -2t43.5 -2t29.5 -1l64 -27q-1 -8 -3.5 -31t-5 -52t-2.5 -55v-375q0 -26 2 -52.5t5 -49t5 -35.5l-39 35l127 -10l-7 -53h-129q-12 0 -35 -1
t-49.5 -2t-49.5 -2zM484 0q-9 20 -20.5 44t-21.5 44l-14 28l-121 229l94 4q27 -53 53.5 -101t46 -80t22.5 -37q7 -11 22 -32.5t28 -38.5l73 -7l-7 -53h-155zM323 303q-40 0 -80 1t-80 3v57q35 -4 70 -9t70 -5q78 0 125 39.5t47 118.5q0 76 -47 115t-125 39q-18 0 -39 -1
t-42.5 -3.5t-43.5 -5.5v53q41 0 83 2.5t83 2.5q69 0 118 -22.5t75.5 -67.5t26.5 -112q0 -65 -32.5 -111t-87.5 -70t-121 -24zM445 753l-205 148l44 52l187 -165zM322 753l-227 111l34 60l214 -132z" />
    <glyph glyph-name="uni1E5A" unicode="&#x1e5a;" horiz-adv-x="693" 
d="M61 -5l-5 49l114 23l-39 -39q2 9 5 30.5t6 44t3 32.5v435q0 11 -2.5 32.5t-6 43.5t-5.5 32l39 -38l-112 18l5 52q19 -1 42 -2t43.5 -2t29.5 -1l64 -27q-1 -8 -3.5 -31t-5 -52t-2.5 -55v-375q0 -26 2 -52.5t5 -49t5 -35.5l-39 35l127 -10l-7 -53h-129q-12 0 -35 -1
t-49.5 -2t-49.5 -2zM484 0q-9 20 -20.5 44t-21.5 44l-14 28l-121 229l94 4q27 -53 53.5 -101t46 -80t22.5 -37q7 -11 22 -32.5t28 -38.5l73 -7l-7 -53h-155zM323 303q-40 0 -80 1t-80 3v57q35 -4 70 -9t70 -5q78 0 125 39.5t47 118.5q0 76 -47 115t-125 39q-18 0 -39 -1
t-42.5 -3.5t-43.5 -5.5v53q41 0 83 2.5t83 2.5q69 0 118 -22.5t75.5 -67.5t26.5 -112q0 -65 -32.5 -111t-87.5 -70t-121 -24zM357 -209q-28 0 -43 17t-15 45q0 29 15 46.5t43 17.5t43 -16.5t15 -47.5q0 -28 -14.5 -45t-43.5 -17z" />
    <glyph glyph-name="uni0212" unicode="&#x212;" horiz-adv-x="693" 
d="M61 -5l-5 49l114 23l-39 -39q2 9 5 30.5t6 44t3 32.5v435q0 11 -2.5 32.5t-6 43.5t-5.5 32l39 -38l-112 18l5 52q19 -1 42 -2t43.5 -2t29.5 -1l64 -27q-1 -8 -3.5 -31t-5 -52t-2.5 -55v-375q0 -26 2 -52.5t5 -49t5 -35.5l-39 35l127 -10l-7 -53h-129q-12 0 -35 -1
t-49.5 -2t-49.5 -2zM484 0q-9 20 -20.5 44t-21.5 44l-14 28l-121 229l94 4q27 -53 53.5 -101t46 -80t22.5 -37q7 -11 22 -32.5t28 -38.5l73 -7l-7 -53h-155zM323 303q-40 0 -80 1t-80 3v57q35 -4 70 -9t70 -5q78 0 125 39.5t47 118.5q0 76 -47 115t-125 39q-18 0 -39 -1
t-42.5 -3.5t-43.5 -5.5v53q41 0 83 2.5t83 2.5q69 0 118 -22.5t75.5 -67.5t26.5 -112q0 -65 -32.5 -111t-87.5 -70t-121 -24zM449 764l-37 -12q-16 33 -42.5 49.5t-55.5 16.5q-28 0 -54.5 -16.5t-43.5 -49.5l-36 12q13 59 52 88t82 29q44 0 83 -29t52 -88z" />
    <glyph glyph-name="uni1E5E" unicode="&#x1e5e;" horiz-adv-x="693" 
d="M61 -5l-5 49l114 23l-39 -39q2 9 5 30.5t6 44t3 32.5v435q0 11 -2.5 32.5t-6 43.5t-5.5 32l39 -38l-112 18l5 52q19 -1 42 -2t43.5 -2t29.5 -1l64 -27q-1 -8 -3.5 -31t-5 -52t-2.5 -55v-375q0 -26 2 -52.5t5 -49t5 -35.5l-39 35l127 -10l-7 -53h-129q-12 0 -35 -1
t-49.5 -2t-49.5 -2zM484 0q-9 20 -20.5 44t-21.5 44l-14 28l-121 229l94 4q27 -53 53.5 -101t46 -80t22.5 -37q7 -11 22 -32.5t28 -38.5l73 -7l-7 -53h-155zM323 303q-40 0 -80 1t-80 3v57q35 -4 70 -9t70 -5q78 0 125 39.5t47 118.5q0 76 -47 115t-125 39q-18 0 -39 -1
t-42.5 -3.5t-43.5 -5.5v53q41 0 83 2.5t83 2.5q69 0 118 -22.5t75.5 -67.5t26.5 -112q0 -65 -32.5 -111t-87.5 -70t-121 -24zM213 -105v42h287l-4 -42h-283z" />
    <glyph glyph-name="S" unicode="S" horiz-adv-x="594" 
d="M289 -15q-73 0 -132 18t-87 35l15 151l65 -6v-46q0 -5 1.5 -16.5t3.5 -25t4.5 -25t4.5 -17.5l-18 23q26 -13 64.5 -23.5t81.5 -10.5q62 0 98 33.5t36 94.5q0 42 -25 70.5t-64 51t-82.5 43.5t-82.5 47.5t-64 63.5t-25 90q0 60 28.5 101t77.5 62t110 21q49 0 101 -10
t100 -22l-14 -148l-58 7v42q0 7 -3 21.5t-7 31t-8 29.5l28 -37q-43 23 -73 28.5t-71 5.5q-46 0 -80.5 -28.5t-34.5 -84.5q0 -40 25 -67.5t65 -50t84 -44.5t84 -50t65 -67t25 -96q0 -66 -32 -109t-86 -64.5t-120 -21.5z" />
    <glyph glyph-name="Sacute" unicode="&#x15a;" horiz-adv-x="594" 
d="M289 -15q-73 0 -132 18t-87 35l15 151l65 -6v-46q0 -5 1.5 -16.5t3.5 -25t4.5 -25t4.5 -17.5l-18 23q26 -13 64.5 -23.5t81.5 -10.5q62 0 98 33.5t36 94.5q0 42 -25 70.5t-64 51t-82.5 43.5t-82.5 47.5t-64 63.5t-25 90q0 60 28.5 101t77.5 62t110 21q49 0 101 -10
t100 -22l-14 -148l-58 7v42q0 7 -3 21.5t-7 31t-8 29.5l28 -37q-43 23 -73 28.5t-71 5.5q-46 0 -80.5 -28.5t-34.5 -84.5q0 -40 25 -67.5t65 -50t84 -44.5t84 -50t65 -67t25 -96q0 -66 -32 -109t-86 -64.5t-120 -21.5zM232 753l-17 40l222 115l29 -62z" />
    <glyph glyph-name="uni1E64" unicode="&#x1e64;" horiz-adv-x="594" 
d="M289 -15q-73 0 -132 18t-87 35l15 151l65 -6v-46q0 -5 1.5 -16.5t3.5 -25t4.5 -25t4.5 -17.5l-18 23q26 -13 64.5 -23.5t81.5 -10.5q62 0 98 33.5t36 94.5q0 42 -25 70.5t-64 51t-82.5 43.5t-82.5 47.5t-64 63.5t-25 90q0 60 28.5 101t77.5 62t110 21q49 0 101 -10
t100 -22l-14 -148l-58 7v42q0 7 -3 21.5t-7 31t-8 29.5l28 -37q-43 23 -73 28.5t-71 5.5q-46 0 -80.5 -28.5t-34.5 -84.5q0 -40 25 -67.5t65 -50t84 -44.5t84 -50t65 -67t25 -96q0 -66 -32 -109t-86 -64.5t-120 -21.5zM254 740l-24 35l186 98l38 -55zM302 864q-23 0 -36 15
t-13 39q0 26 13 41t36 15t35 -14.5t12 -41.5q0 -23 -12 -38.5t-35 -15.5z" />
    <glyph glyph-name="uniA78B" unicode="&#xa78b;" horiz-adv-x="243" 
d="M141 307l-58 5l12 182q0 3 -2.5 27t-6 57.5t-7.5 68t-6 58.5h82l18 -17z" />
    <glyph glyph-name="Scaron" unicode="&#x160;" horiz-adv-x="594" 
d="M289 -15q-73 0 -132 18t-87 35l15 151l65 -6v-46q0 -5 1.5 -16.5t3.5 -25t4.5 -25t4.5 -17.5l-18 23q26 -13 64.5 -23.5t81.5 -10.5q62 0 98 33.5t36 94.5q0 42 -25 70.5t-64 51t-82.5 43.5t-82.5 47.5t-64 63.5t-25 90q0 60 28.5 101t77.5 62t110 21q49 0 101 -10
t100 -22l-14 -148l-58 7v42q0 7 -3 21.5t-7 31t-8 29.5l28 -37q-43 23 -73 28.5t-71 5.5q-46 0 -80.5 -28.5t-34.5 -84.5q0 -40 25 -67.5t65 -50t84 -44.5t84 -50t65 -67t25 -96q0 -66 -32 -109t-86 -64.5t-120 -21.5zM160 878l190 -86l-33 -39h-39l-140 90zM460 878l22 -35
l-141 -90h-39l-33 39z" />
    <glyph glyph-name="uni1E66" unicode="&#x1e66;" horiz-adv-x="594" 
d="M289 -15q-73 0 -132 18t-87 35l15 151l65 -6v-46q0 -5 1.5 -16.5t3.5 -25t4.5 -25t4.5 -17.5l-18 23q26 -13 64.5 -23.5t81.5 -10.5q62 0 98 33.5t36 94.5q0 42 -25 70.5t-64 51t-82.5 43.5t-82.5 47.5t-64 63.5t-25 90q0 60 28.5 101t77.5 62t110 21q49 0 101 -10
t100 -22l-14 -148l-58 7v42q0 7 -3 21.5t-7 31t-8 29.5l28 -37q-43 23 -73 28.5t-71 5.5q-46 0 -80.5 -28.5t-34.5 -84.5q0 -40 25 -67.5t65 -50t84 -44.5t84 -50t65 -67t25 -96q0 -66 -32 -109t-86 -64.5t-120 -21.5zM282 753l-37 32l176 100l30 -30l-134 -102h-35z
M262 753l-134 102l30 30l176 -100l-37 -32h-35zM291 867q-23 0 -36 15t-13 39q0 26 13 41t36 15t35 -14.5t12 -41.5q0 -23 -12 -38.5t-35 -15.5z" />
    <glyph glyph-name="Scedilla" unicode="&#x15e;" horiz-adv-x="594" 
d="M289 -15q-73 0 -132 18t-87 35l15 151l65 -6v-46q0 -5 1.5 -16.5t3.5 -25t4.5 -25t4.5 -17.5l-18 23q26 -13 64.5 -23.5t81.5 -10.5q62 0 98 33.5t36 94.5q0 42 -25 70.5t-64 51t-82.5 43.5t-82.5 47.5t-64 63.5t-25 90q0 60 28.5 101t77.5 62t110 21q49 0 101 -10
t100 -22l-14 -148l-58 7v42q0 7 -3 21.5t-7 31t-8 29.5l28 -37q-43 23 -73 28.5t-71 5.5q-46 0 -80.5 -28.5t-34.5 -84.5q0 -40 25 -67.5t65 -50t84 -44.5t84 -50t65 -67t25 -96q0 -66 -32 -109t-86 -64.5t-120 -21.5zM212 -247l-7 35q41 2 70.5 20t27.5 41q-1 14 -16.5 23
t-45.5 10l-9 6l27 129h42l-37 -114l-14 41q60 -10 83 -36.5t23 -53.5q0 -17 -10 -37.5t-30 -36.5q-18 -13 -43.5 -20t-60.5 -7z" />
    <glyph glyph-name="Scircumflex" unicode="&#x15c;" horiz-adv-x="594" 
d="M289 -15q-73 0 -132 18t-87 35l15 151l65 -6v-46q0 -5 1.5 -16.5t3.5 -25t4.5 -25t4.5 -17.5l-18 23q26 -13 64.5 -23.5t81.5 -10.5q62 0 98 33.5t36 94.5q0 42 -25 70.5t-64 51t-82.5 43.5t-82.5 47.5t-64 63.5t-25 90q0 60 28.5 101t77.5 62t110 21q49 0 101 -10
t100 -22l-14 -148l-58 7v42q0 7 -3 21.5t-7 31t-8 29.5l28 -37q-43 23 -73 28.5t-71 5.5q-46 0 -80.5 -28.5t-34.5 -84.5q0 -40 25 -67.5t65 -50t84 -44.5t84 -50t65 -67t25 -96q0 -66 -32 -109t-86 -64.5t-120 -21.5zM460 753l-190 86l33 39h39l140 -90zM160 753l-22 35
l141 90h39l33 -39z" />
    <glyph glyph-name="uni0218" unicode="&#x218;" horiz-adv-x="594" 
d="M289 -15q-73 0 -132 18t-87 35l15 151l65 -6v-46q0 -5 1.5 -16.5t3.5 -25t4.5 -25t4.5 -17.5l-18 23q26 -13 64.5 -23.5t81.5 -10.5q62 0 98 33.5t36 94.5q0 42 -25 70.5t-64 51t-82.5 43.5t-82.5 47.5t-64 63.5t-25 90q0 60 28.5 101t77.5 62t110 21q49 0 101 -10
t100 -22l-14 -148l-58 7v42q0 7 -3 21.5t-7 31t-8 29.5l28 -37q-43 23 -73 28.5t-71 5.5q-46 0 -80.5 -28.5t-34.5 -84.5q0 -40 25 -67.5t65 -50t84 -44.5t84 -50t65 -67t25 -96q0 -66 -32 -109t-86 -64.5t-120 -21.5zM284 -248l-36 12q3 11 7.5 31t6.5 39.5t-5 27.5l27 -23
q-8 0 -20.5 4t-22.5 16.5t-10 35.5q0 29 15.5 42t32.5 13q51 0 51 -63q0 -20 -7.5 -45t-18 -49t-20.5 -41z" />
    <glyph glyph-name="uni1E60" unicode="&#x1e60;" horiz-adv-x="594" 
d="M289 -15q-73 0 -132 18t-87 35l15 151l65 -6v-46q0 -5 1.5 -16.5t3.5 -25t4.5 -25t4.5 -17.5l-18 23q26 -13 64.5 -23.5t81.5 -10.5q62 0 98 33.5t36 94.5q0 42 -25 70.5t-64 51t-82.5 43.5t-82.5 47.5t-64 63.5t-25 90q0 60 28.5 101t77.5 62t110 21q49 0 101 -10
t100 -22l-14 -148l-58 7v42q0 7 -3 21.5t-7 31t-8 29.5l28 -37q-43 23 -73 28.5t-71 5.5q-46 0 -80.5 -28.5t-34.5 -84.5q0 -40 25 -67.5t65 -50t84 -44.5t84 -50t65 -67t25 -96q0 -66 -32 -109t-86 -64.5t-120 -21.5zM310 754q-28 0 -43 17t-15 45q0 29 15 46.5t43 17.5
t43 -16.5t15 -47.5q0 -28 -14.5 -45t-43.5 -17z" />
    <glyph glyph-name="uni1E62" unicode="&#x1e62;" horiz-adv-x="594" 
d="M289 -15q-73 0 -132 18t-87 35l15 151l65 -6v-46q0 -5 1.5 -16.5t3.5 -25t4.5 -25t4.5 -17.5l-18 23q26 -13 64.5 -23.5t81.5 -10.5q62 0 98 33.5t36 94.5q0 42 -25 70.5t-64 51t-82.5 43.5t-82.5 47.5t-64 63.5t-25 90q0 60 28.5 101t77.5 62t110 21q49 0 101 -10
t100 -22l-14 -148l-58 7v42q0 7 -3 21.5t-7 31t-8 29.5l28 -37q-43 23 -73 28.5t-71 5.5q-46 0 -80.5 -28.5t-34.5 -84.5q0 -40 25 -67.5t65 -50t84 -44.5t84 -50t65 -67t25 -96q0 -66 -32 -109t-86 -64.5t-120 -21.5zM280 -209q-28 0 -43 17t-15 45q0 29 15 46.5t43 17.5
t43 -16.5t15 -47.5q0 -28 -14.5 -45t-43.5 -17z" />
    <glyph glyph-name="uni1E68" unicode="&#x1e68;" horiz-adv-x="594" 
d="M289 -15q-73 0 -132 18t-87 35l15 151l65 -6v-46q0 -5 1.5 -16.5t3.5 -25t4.5 -25t4.5 -17.5l-18 23q26 -13 64.5 -23.5t81.5 -10.5q62 0 98 33.5t36 94.5q0 42 -25 70.5t-64 51t-82.5 43.5t-82.5 47.5t-64 63.5t-25 90q0 60 28.5 101t77.5 62t110 21q49 0 101 -10
t100 -22l-14 -148l-58 7v42q0 7 -3 21.5t-7 31t-8 29.5l28 -37q-43 23 -73 28.5t-71 5.5q-46 0 -80.5 -28.5t-34.5 -84.5q0 -40 25 -67.5t65 -50t84 -44.5t84 -50t65 -67t25 -96q0 -66 -32 -109t-86 -64.5t-120 -21.5zM310 754q-28 0 -43 17t-15 45q0 29 15 46.5t43 17.5
t43 -16.5t15 -47.5q0 -28 -14.5 -45t-43.5 -17zM280 -209q-28 0 -43 17t-15 45q0 29 15 46.5t43 17.5t43 -16.5t15 -47.5q0 -28 -14.5 -45t-43.5 -17z" />
    <glyph glyph-name="uni1E9E" unicode="&#x1e9e;" horiz-adv-x="770" 
d="M51 -5l-5 49l114 23l-39 -45q2 11 5 33.5t6 45.5t3 34v330q0 76 21.5 125.5t59.5 78t87.5 40t106.5 11.5q50 0 98.5 -5.5t103.5 -16.5l10 -30l-208 -295l-71 12l199 288l2 -33q-40 12 -75.5 17t-74.5 5q-47 0 -85.5 -19.5t-60.5 -63t-22 -114.5v-300q0 -13 0.5 -32
t1 -39.5t1 -40.5t1.5 -36l-18 -17h-22q-10 0 -34.5 -1t-52.5 -2t-52 -2zM493 -10q-33 0 -63 5.5t-57.5 16.5t-56.5 26l15 151l65 -6v-46q0 -9 1.5 -25.5t3.5 -33.5t3 -26l-13 28q8 -7 24 -14.5t37.5 -12.5t43.5 -5q53 0 84.5 31.5t31.5 86.5q0 25 -10 49.5t-39.5 50.5
t-87.5 54l-132 65l93 63l114 -59q66 -34 101 -67t48.5 -68.5t13.5 -77.5q0 -56 -27.5 -98t-77 -65t-115.5 -23z" />
    <glyph glyph-name="uni018F" unicode="&#x18f;" horiz-adv-x="719" 
d="M341 -15q-90 0 -151 45t-92.5 120t-31.5 164v26.5v26.5l24 32l475 -15v-56l-433 -8l33 43v-28.5v-26.5q0 -46 9.5 -92.5t30.5 -85t54.5 -62t81.5 -23.5q70 0 115.5 42t68 112t22.5 153q0 102 -32.5 167.5t-89.5 97t-129 31.5q-40 0 -87 -9.5t-92 -26.5l-29 51
q52 23 109 35t118 12q71 0 131.5 -21.5t105.5 -65.5t70 -111.5t25 -159.5q0 -108 -34 -191t-102 -129.5t-170 -46.5z" />
    <glyph glyph-name="T" unicode="T" horiz-adv-x="687" 
d="M207 -5l-5 49l124 23l-39 -39q2 9 5 30.5t6 44t3 32.5v435q0 11 -3 32.5t-6 43.5t-5 32h110q-1 -8 -3.5 -31t-4.5 -52t-2 -55v-375q0 -26 2 -52.5t4.5 -49t4.5 -35.5l-38 35l135 -10l-7 -53h-138q-11 0 -36 -1t-54 -2t-53 -2zM115 524l-58 5l7 163l19 18q19 -1 42 -2
t43 -2t29 -1h293q9 0 28.5 1t43 2t42.5 2l19 -18l7 -163l-57 -5q-1 14 -3.5 31t-5 32t-5.5 22l-34 68l41 -32q-15 2 -47.5 4t-58.5 2h-233q-17 0 -38 -1.5t-39.5 -2.5t-29.5 -2l42 32l-34 -68q-3 -11 -7 -38t-6 -47z" />
    <glyph glyph-name="Tbar" unicode="&#x166;" horiz-adv-x="687" 
d="M207 -5l-5 49l124 23l-39 -39q2 9 5 30.5t6 44t3 32.5v435q0 11 -3 32.5t-6 43.5t-5 32h110q-1 -8 -3.5 -31t-4.5 -52t-2 -55v-375q0 -26 2 -52.5t4.5 -49t4.5 -35.5l-38 35l135 -10l-7 -53h-138q-11 0 -36 -1t-54 -2t-53 -2zM115 524l-58 5l7 163l19 18q19 -1 42 -2
t43 -2t29 -1h293q9 0 28.5 1t43 2t42.5 2l19 -18l7 -163l-57 -5q-1 14 -3.5 31t-5 32t-5.5 22l-34 68l41 -32q-15 2 -47.5 4t-58.5 2h-233q-17 0 -38 -1.5t-39.5 -2.5t-29.5 -2l42 32l-34 -68q-3 -11 -7 -38t-6 -47zM189 332v42h315l-4 -42h-311z" />
    <glyph glyph-name="Tcaron" unicode="&#x164;" horiz-adv-x="687" 
d="M207 -5l-5 49l124 23l-39 -39q2 9 5 30.5t6 44t3 32.5v435q0 11 -3 32.5t-6 43.5t-5 32h110q-1 -8 -3.5 -31t-4.5 -52t-2 -55v-375q0 -26 2 -52.5t4.5 -49t4.5 -35.5l-38 35l135 -10l-7 -53h-138q-11 0 -36 -1t-54 -2t-53 -2zM115 524l-58 5l7 163l19 18q19 -1 42 -2
t43 -2t29 -1h293q9 0 28.5 1t43 2t42.5 2l19 -18l7 -163l-57 -5q-1 14 -3.5 31t-5 32t-5.5 22l-34 68l41 -32q-15 2 -47.5 4t-58.5 2h-233q-17 0 -38 -1.5t-39.5 -2.5t-29.5 -2l42 32l-34 -68q-3 -11 -7 -38t-6 -47zM194 878l190 -86l-33 -39h-39l-140 90zM494 878l22 -35
l-141 -90h-39l-33 39z" />
    <glyph glyph-name="uni0162" unicode="&#x162;" horiz-adv-x="687" 
d="M207 -5l-5 49l124 23l-39 -39q2 9 5 30.5t6 44t3 32.5v435q0 11 -3 32.5t-6 43.5t-5 32h110q-1 -8 -3.5 -31t-4.5 -52t-2 -55v-375q0 -26 2 -52.5t4.5 -49t4.5 -35.5l-38 35l135 -10l-7 -53h-138q-11 0 -36 -1t-54 -2t-53 -2zM115 524l-58 5l7 163l19 18q19 -1 42 -2
t43 -2t29 -1h293q9 0 28.5 1t43 2t42.5 2l19 -18l7 -163l-57 -5q-1 14 -3.5 31t-5 32t-5.5 22l-34 68l41 -32q-15 2 -47.5 4t-58.5 2h-233q-17 0 -38 -1.5t-39.5 -2.5t-29.5 -2l42 32l-34 -68q-3 -11 -7 -38t-6 -47zM281 -247l-7 35q41 2 70.5 20t27.5 41q-1 14 -16.5 23
t-45.5 10l-9 6l27 129h42l-37 -114l-14 41q60 -10 83 -36.5t23 -53.5q0 -17 -10 -37.5t-30 -36.5q-18 -13 -43.5 -20t-60.5 -7z" />
    <glyph glyph-name="uni021A" unicode="&#x21a;" horiz-adv-x="687" 
d="M207 -5l-5 49l124 23l-39 -39q2 9 5 30.5t6 44t3 32.5v435q0 11 -3 32.5t-6 43.5t-5 32h110q-1 -8 -3.5 -31t-4.5 -52t-2 -55v-375q0 -26 2 -52.5t4.5 -49t4.5 -35.5l-38 35l135 -10l-7 -53h-138q-11 0 -36 -1t-54 -2t-53 -2zM115 524l-58 5l7 163l19 18q19 -1 42 -2
t43 -2t29 -1h293q9 0 28.5 1t43 2t42.5 2l19 -18l7 -163l-57 -5q-1 14 -3.5 31t-5 32t-5.5 22l-34 68l41 -32q-15 2 -47.5 4t-58.5 2h-233q-17 0 -38 -1.5t-39.5 -2.5t-29.5 -2l42 32l-34 -68q-3 -11 -7 -38t-6 -47zM353 -248l-36 12q3 11 7.5 31t6.5 39.5t-5 27.5l27 -23
q-8 0 -20.5 4t-22.5 16.5t-10 35.5q0 29 15.5 42t32.5 13q51 0 51 -63q0 -20 -7.5 -45t-18 -49t-20.5 -41z" />
    <glyph glyph-name="uni1E6C" unicode="&#x1e6c;" horiz-adv-x="687" 
d="M207 -5l-5 49l124 23l-39 -39q2 9 5 30.5t6 44t3 32.5v435q0 11 -3 32.5t-6 43.5t-5 32h110q-1 -8 -3.5 -31t-4.5 -52t-2 -55v-375q0 -26 2 -52.5t4.5 -49t4.5 -35.5l-38 35l135 -10l-7 -53h-138q-11 0 -36 -1t-54 -2t-53 -2zM115 524l-58 5l7 163l19 18q19 -1 42 -2
t43 -2t29 -1h293q9 0 28.5 1t43 2t42.5 2l19 -18l7 -163l-57 -5q-1 14 -3.5 31t-5 32t-5.5 22l-34 68l41 -32q-15 2 -47.5 4t-58.5 2h-233q-17 0 -38 -1.5t-39.5 -2.5t-29.5 -2l42 32l-34 -68q-3 -11 -7 -38t-6 -47zM349 -209q-28 0 -43 17t-15 45q0 29 15 46.5t43 17.5
t43 -16.5t15 -47.5q0 -28 -14.5 -45t-43.5 -17z" />
    <glyph glyph-name="uni1E6E" unicode="&#x1e6e;" horiz-adv-x="687" 
d="M207 -5l-5 49l124 23l-39 -39q2 9 5 30.5t6 44t3 32.5v435q0 11 -3 32.5t-6 43.5t-5 32h110q-1 -8 -3.5 -31t-4.5 -52t-2 -55v-375q0 -26 2 -52.5t4.5 -49t4.5 -35.5l-38 35l135 -10l-7 -53h-138q-11 0 -36 -1t-54 -2t-53 -2zM115 524l-58 5l7 163l19 18q19 -1 42 -2
t43 -2t29 -1h293q9 0 28.5 1t43 2t42.5 2l19 -18l7 -163l-57 -5q-1 14 -3.5 31t-5 32t-5.5 22l-34 68l41 -32q-15 2 -47.5 4t-58.5 2h-233q-17 0 -38 -1.5t-39.5 -2.5t-29.5 -2l42 32l-34 -68q-3 -11 -7 -38t-6 -47zM205 -105v42h287l-4 -42h-283z" />
    <glyph glyph-name="U" unicode="U" horiz-adv-x="782" 
d="M391 -15q-127 0 -191 76.5t-64 204.5v299q0 11 -3 33.5t-6.5 46.5t-6.5 37l41 -41l-115 17l5 52q19 -1 42 -2t43.5 -2t29.5 -1q18 0 45.5 1t54.5 2t43 2l4 -57l-114 -10l37 39q-1 -11 -3.5 -36t-4.5 -55t-2 -56v-269q0 -64 19 -114t58 -78.5t97 -28.5q61 0 100.5 29
t59.5 79t20 113v299q0 8 -2 25t-5 36.5t-5.5 35t-3.5 20.5l44 -42l-117 18l5 52q28 -1 59 -3t46 -2q32 0 67 2t63 3l4 -57l-114 -10l37 39q-1 -11 -3.5 -36t-4.5 -55t-2 -56v-269q0 -128 -64.5 -204.5t-192.5 -76.5z" />
    <glyph glyph-name="Uacute" unicode="&#xda;" horiz-adv-x="782" 
d="M391 -15q-127 0 -191 76.5t-64 204.5v299q0 11 -3 33.5t-6.5 46.5t-6.5 37l41 -41l-115 17l5 52q19 -1 42 -2t43.5 -2t29.5 -1q18 0 45.5 1t54.5 2t43 2l4 -57l-114 -10l37 39q-1 -11 -3.5 -36t-4.5 -55t-2 -56v-269q0 -64 19 -114t58 -78.5t97 -28.5q61 0 100.5 29
t59.5 79t20 113v299q0 8 -2 25t-5 36.5t-5.5 35t-3.5 20.5l44 -42l-117 18l5 52q28 -1 59 -3t46 -2q32 0 67 2t63 3l4 -57l-114 -10l37 39q-1 -11 -3.5 -36t-4.5 -55t-2 -56v-269q0 -128 -64.5 -204.5t-192.5 -76.5zM315 753l-17 40l222 115l29 -62z" />
    <glyph glyph-name="Ubreve" unicode="&#x16c;" horiz-adv-x="782" 
d="M391 -15q-127 0 -191 76.5t-64 204.5v299q0 11 -3 33.5t-6.5 46.5t-6.5 37l41 -41l-115 17l5 52q19 -1 42 -2t43.5 -2t29.5 -1q18 0 45.5 1t54.5 2t43 2l4 -57l-114 -10l37 39q-1 -11 -3.5 -36t-4.5 -55t-2 -56v-269q0 -64 19 -114t58 -78.5t97 -28.5q61 0 100.5 29
t59.5 79t20 113v299q0 8 -2 25t-5 36.5t-5.5 35t-3.5 20.5l44 -42l-117 18l5 52q28 -1 59 -3t46 -2q32 0 67 2t63 3l4 -57l-114 -10l37 39q-1 -11 -3.5 -36t-4.5 -55t-2 -56v-269q0 -128 -64.5 -204.5t-192.5 -76.5zM258 870l37 12q17 -33 43.5 -49.5t54.5 -16.5
q29 0 55.5 16.5t42.5 49.5l36 -12q-13 -58 -51.5 -87.5t-82.5 -29.5t-83 29.5t-52 87.5z" />
    <glyph glyph-name="uni01D3" unicode="&#x1d3;" horiz-adv-x="782" 
d="M391 -15q-127 0 -191 76.5t-64 204.5v299q0 11 -3 33.5t-6.5 46.5t-6.5 37l41 -41l-115 17l5 52q19 -1 42 -2t43.5 -2t29.5 -1q18 0 45.5 1t54.5 2t43 2l4 -57l-114 -10l37 39q-1 -11 -3.5 -36t-4.5 -55t-2 -56v-269q0 -64 19 -114t58 -78.5t97 -28.5q61 0 100.5 29
t59.5 79t20 113v299q0 8 -2 25t-5 36.5t-5.5 35t-3.5 20.5l44 -42l-117 18l5 52q28 -1 59 -3t46 -2q32 0 67 2t63 3l4 -57l-114 -10l37 39q-1 -11 -3.5 -36t-4.5 -55t-2 -56v-269q0 -128 -64.5 -204.5t-192.5 -76.5zM243 878l190 -86l-33 -39h-39l-140 90zM543 878l22 -35
l-141 -90h-39l-33 39z" />
    <glyph glyph-name="Ucircumflex" unicode="&#xdb;" horiz-adv-x="782" 
d="M391 -15q-127 0 -191 76.5t-64 204.5v299q0 11 -3 33.5t-6.5 46.5t-6.5 37l41 -41l-115 17l5 52q19 -1 42 -2t43.5 -2t29.5 -1q18 0 45.5 1t54.5 2t43 2l4 -57l-114 -10l37 39q-1 -11 -3.5 -36t-4.5 -55t-2 -56v-269q0 -64 19 -114t58 -78.5t97 -28.5q61 0 100.5 29
t59.5 79t20 113v299q0 8 -2 25t-5 36.5t-5.5 35t-3.5 20.5l44 -42l-117 18l5 52q28 -1 59 -3t46 -2q32 0 67 2t63 3l4 -57l-114 -10l37 39q-1 -11 -3.5 -36t-4.5 -55t-2 -56v-269q0 -128 -64.5 -204.5t-192.5 -76.5zM543 753l-190 86l33 39h39l140 -90zM243 753l-22 35
l141 90h39l33 -39z" />
    <glyph glyph-name="uni0214" unicode="&#x214;" horiz-adv-x="782" 
d="M391 -15q-127 0 -191 76.5t-64 204.5v299q0 11 -3 33.5t-6.5 46.5t-6.5 37l41 -41l-115 17l5 52q19 -1 42 -2t43.5 -2t29.5 -1q18 0 45.5 1t54.5 2t43 2l4 -57l-114 -10l37 39q-1 -11 -3.5 -36t-4.5 -55t-2 -56v-269q0 -64 19 -114t58 -78.5t97 -28.5q61 0 100.5 29
t59.5 79t20 113v299q0 8 -2 25t-5 36.5t-5.5 35t-3.5 20.5l44 -42l-117 18l5 52q28 -1 59 -3t46 -2q32 0 67 2t63 3l4 -57l-114 -10l37 39q-1 -11 -3.5 -36t-4.5 -55t-2 -56v-269q0 -128 -64.5 -204.5t-192.5 -76.5zM524 753l-205 148l44 52l187 -165zM401 753l-227 111
l34 60l214 -132z" />
    <glyph glyph-name="Udieresis" unicode="&#xdc;" horiz-adv-x="782" 
d="M391 -15q-127 0 -191 76.5t-64 204.5v299q0 11 -3 33.5t-6.5 46.5t-6.5 37l41 -41l-115 17l5 52q19 -1 42 -2t43.5 -2t29.5 -1q18 0 45.5 1t54.5 2t43 2l4 -57l-114 -10l37 39q-1 -11 -3.5 -36t-4.5 -55t-2 -56v-269q0 -64 19 -114t58 -78.5t97 -28.5q61 0 100.5 29
t59.5 79t20 113v299q0 8 -2 25t-5 36.5t-5.5 35t-3.5 20.5l44 -42l-117 18l5 52q28 -1 59 -3t46 -2q32 0 67 2t63 3l4 -57l-114 -10l37 39q-1 -11 -3.5 -36t-4.5 -55t-2 -56v-269q0 -128 -64.5 -204.5t-192.5 -76.5zM484 753q-26 0 -40.5 15t-14.5 42q0 25 15 40t40 15
t39.5 -14t14.5 -41t-14 -42t-40 -15zM303 753q-26 0 -40.5 15t-14.5 42q0 25 15 40t40 15q24 0 39 -14t15 -41t-14.5 -42t-39.5 -15z" />
    <glyph glyph-name="uni01D7" unicode="&#x1d7;" horiz-adv-x="782" 
d="M391 -15q-127 0 -191 76.5t-64 204.5v299q0 11 -3 33.5t-6.5 46.5t-6.5 37l41 -41l-115 17l5 52q19 -1 42 -2t43.5 -2t29.5 -1q18 0 45.5 1t54.5 2t43 2l4 -57l-114 -10l37 39q-1 -11 -3.5 -36t-4.5 -55t-2 -56v-269q0 -64 19 -114t58 -78.5t97 -28.5q61 0 100.5 29
t59.5 79t20 113v299q0 8 -2 25t-5 36.5t-5.5 35t-3.5 20.5l44 -42l-117 18l5 52q28 -1 59 -3t46 -2q32 0 67 2t63 3l4 -57l-114 -10l37 39q-1 -11 -3.5 -36t-4.5 -55t-2 -56v-269q0 -128 -64.5 -204.5t-192.5 -76.5zM486 753q-23 0 -35.5 15.5t-12.5 38.5q0 25 12.5 40.5
t35.5 15.5t35.5 -14.5t12.5 -41.5q0 -24 -12.5 -39t-35.5 -15zM309 753q-23 0 -36 15t-13 39q0 26 13 41t36 15t35 -14.5t12 -41.5q0 -23 -12 -38.5t-35 -15.5zM347 874l-24 35l186 98l38 -55z" />
    <glyph glyph-name="uni01D9" unicode="&#x1d9;" horiz-adv-x="782" 
d="M391 -15q-127 0 -191 76.5t-64 204.5v299q0 11 -3 33.5t-6.5 46.5t-6.5 37l41 -41l-115 17l5 52q19 -1 42 -2t43.5 -2t29.5 -1q18 0 45.5 1t54.5 2t43 2l4 -57l-114 -10l37 39q-1 -11 -3.5 -36t-4.5 -55t-2 -56v-269q0 -64 19 -114t58 -78.5t97 -28.5q61 0 100.5 29
t59.5 79t20 113v299q0 8 -2 25t-5 36.5t-5.5 35t-3.5 20.5l44 -42l-117 18l5 52q28 -1 59 -3t46 -2q32 0 67 2t63 3l4 -57l-114 -10l37 39q-1 -11 -3.5 -36t-4.5 -55t-2 -56v-269q0 -128 -64.5 -204.5t-192.5 -76.5zM479 753q-23 0 -35.5 15.5t-12.5 38.5q0 25 12.5 40.5
t35.5 15.5t35.5 -14.5t12.5 -41.5q0 -24 -12.5 -39t-35.5 -15zM302 753q-23 0 -36 15t-13 39q0 26 13 41t36 15t35 -14.5t12 -41.5q0 -23 -12 -38.5t-35 -15.5zM383 878l-37 32l176 100l30 -30l-134 -102h-35zM363 878l-134 102l30 30l176 -100l-37 -32h-35z" />
    <glyph glyph-name="uni01DB" unicode="&#x1db;" horiz-adv-x="782" 
d="M391 -15q-127 0 -191 76.5t-64 204.5v299q0 11 -3 33.5t-6.5 46.5t-6.5 37l41 -41l-115 17l5 52q19 -1 42 -2t43.5 -2t29.5 -1q18 0 45.5 1t54.5 2t43 2l4 -57l-114 -10l37 39q-1 -11 -3.5 -36t-4.5 -55t-2 -56v-269q0 -64 19 -114t58 -78.5t97 -28.5q61 0 100.5 29
t59.5 79t20 113v299q0 8 -2 25t-5 36.5t-5.5 35t-3.5 20.5l44 -42l-117 18l5 52q28 -1 59 -3t46 -2q32 0 67 2t63 3l4 -57l-114 -10l37 39q-1 -11 -3.5 -36t-4.5 -55t-2 -56v-269q0 -128 -64.5 -204.5t-192.5 -76.5zM497 753q-23 0 -35.5 15.5t-12.5 38.5q0 25 12.5 40.5
t35.5 15.5t35.5 -14.5t12.5 -41.5q0 -24 -12.5 -39t-35.5 -15zM320 753q-23 0 -36 15t-13 39q0 26 13 41t36 15t35 -14.5t12 -41.5q0 -23 -12 -38.5t-35 -15.5zM428 868l-192 96l43 51l176 -114z" />
    <glyph glyph-name="uni01D5" unicode="&#x1d5;" horiz-adv-x="782" 
d="M391 -15q-127 0 -191 76.5t-64 204.5v299q0 11 -3 33.5t-6.5 46.5t-6.5 37l41 -41l-115 17l5 52q19 -1 42 -2t43.5 -2t29.5 -1q18 0 45.5 1t54.5 2t43 2l4 -57l-114 -10l37 39q-1 -11 -3.5 -36t-4.5 -55t-2 -56v-269q0 -64 19 -114t58 -78.5t97 -28.5q61 0 100.5 29
t59.5 79t20 113v299q0 8 -2 25t-5 36.5t-5.5 35t-3.5 20.5l44 -42l-117 18l5 52q28 -1 59 -3t46 -2q32 0 67 2t63 3l4 -57l-114 -10l37 39q-1 -11 -3.5 -36t-4.5 -55t-2 -56v-269q0 -128 -64.5 -204.5t-192.5 -76.5zM480 753q-23 0 -35.5 15.5t-12.5 38.5q0 25 12.5 40.5
t35.5 15.5t35.5 -14.5t12.5 -41.5q0 -24 -12.5 -39t-35.5 -15zM303 753q-23 0 -36 15t-13 39q0 26 13 41t36 15t35 -14.5t12 -41.5q0 -23 -12 -38.5t-35 -15.5zM242 900v54h300l-5 -54h-295z" />
    <glyph glyph-name="uni1EE4" unicode="&#x1ee4;" horiz-adv-x="782" 
d="M391 -15q-127 0 -191 76.5t-64 204.5v299q0 11 -3 33.5t-6.5 46.5t-6.5 37l41 -41l-115 17l5 52q19 -1 42 -2t43.5 -2t29.5 -1q18 0 45.5 1t54.5 2t43 2l4 -57l-114 -10l37 39q-1 -11 -3.5 -36t-4.5 -55t-2 -56v-269q0 -64 19 -114t58 -78.5t97 -28.5q61 0 100.5 29
t59.5 79t20 113v299q0 8 -2 25t-5 36.5t-5.5 35t-3.5 20.5l44 -42l-117 18l5 52q28 -1 59 -3t46 -2q32 0 67 2t63 3l4 -57l-114 -10l37 39q-1 -11 -3.5 -36t-4.5 -55t-2 -56v-269q0 -128 -64.5 -204.5t-192.5 -76.5zM399 -209q-28 0 -43 17t-15 45q0 29 15 46.5t43 17.5
t43 -16.5t15 -47.5q0 -28 -14.5 -45t-43.5 -17z" />
    <glyph glyph-name="Ugrave" unicode="&#xd9;" horiz-adv-x="782" 
d="M391 -15q-127 0 -191 76.5t-64 204.5v299q0 11 -3 33.5t-6.5 46.5t-6.5 37l41 -41l-115 17l5 52q19 -1 42 -2t43.5 -2t29.5 -1q18 0 45.5 1t54.5 2t43 2l4 -57l-114 -10l37 39q-1 -11 -3.5 -36t-4.5 -55t-2 -56v-269q0 -64 19 -114t58 -78.5t97 -28.5q61 0 100.5 29
t59.5 79t20 113v299q0 8 -2 25t-5 36.5t-5.5 35t-3.5 20.5l44 -42l-117 18l5 52q28 -1 59 -3t46 -2q32 0 67 2t63 3l4 -57l-114 -10l37 39q-1 -11 -3.5 -36t-4.5 -55t-2 -56v-269q0 -128 -64.5 -204.5t-192.5 -76.5zM488 753l-234 93l29 62l222 -115z" />
    <glyph glyph-name="uni1EE6" unicode="&#x1ee6;" horiz-adv-x="782" 
d="M391 -15q-127 0 -191 76.5t-64 204.5v299q0 11 -3 33.5t-6.5 46.5t-6.5 37l41 -41l-115 17l5 52q19 -1 42 -2t43.5 -2t29.5 -1q18 0 45.5 1t54.5 2t43 2l4 -57l-114 -10l37 39q-1 -11 -3.5 -36t-4.5 -55t-2 -56v-269q0 -64 19 -114t58 -78.5t97 -28.5q61 0 100.5 29
t59.5 79t20 113v299q0 8 -2 25t-5 36.5t-5.5 35t-3.5 20.5l44 -42l-117 18l5 52q28 -1 59 -3t46 -2q32 0 67 2t63 3l4 -57l-114 -10l37 39q-1 -11 -3.5 -36t-4.5 -55t-2 -56v-269q0 -128 -64.5 -204.5t-192.5 -76.5zM386 753q-20 0 -29.5 10.5t-9.5 20.5q0 17 9 26t21 14.5
t21 11.5t9 16q0 11 -8 15.5t-20 4.5t-24 -3.5t-23 -8.5l-16 39q15 5 29.5 8.5t40.5 3.5q42 0 63.5 -14.5t21.5 -34.5q0 -18 -10 -29.5t-22.5 -20t-22.5 -17t-10 -19.5q0 -9 6 -17q-4 -2 -11 -4t-15 -2z" />
    <glyph glyph-name="Uhorn" unicode="&#x1af;" horiz-adv-x="715" 
d="M376 -15q-127 0 -191 76.5t-64 204.5v299q0 11 -3 34t-6.5 47t-6.5 37l40 -41l-114 16l5 52q8 0 32 -1.5t48.5 -2.5t33.5 -1q32 0 73.5 2t68.5 3l4 -57l-113 -10l37 40q-1 -11 -4 -36t-5 -55.5t-2 -56.5v-268q0 -98 43.5 -160.5t131.5 -62.5q61 0 101 29t60 79.5
t20 114.5v298q0 8 -2 25t-4.5 37t-5 35.5t-3.5 20.5l39 -42l-113 17l5 47h40.5h39.5h25l56 -22q-1 -11 -4 -36.5t-5 -55.5t-2 -56v-269q0 -128 -64 -204.5t-191 -76.5zM586 668v37h30q52 0 68 13t16 33q0 17 -7.5 39.5t-15.5 37.5l87 28q4 -24 6 -47.5t2 -44.5
q0 -28 -12 -49.5t-41.5 -34t-83.5 -12.5h-49z" />
    <glyph glyph-name="uni1EE8" unicode="&#x1ee8;" horiz-adv-x="715" 
d="M376 -15q-127 0 -191 76.5t-64 204.5v299q0 11 -3 34t-6.5 47t-6.5 37l40 -41l-114 16l5 52q8 0 32 -1.5t48.5 -2.5t33.5 -1q32 0 73.5 2t68.5 3l4 -57l-113 -10l37 40q-1 -11 -4 -36t-5 -55.5t-2 -56.5v-268q0 -98 43.5 -160.5t131.5 -62.5q61 0 101 29t60 79.5
t20 114.5v298q0 8 -2 25t-4.5 37t-5 35.5t-3.5 20.5l39 -42l-113 17l5 47h40.5h39.5h25l56 -22q-1 -11 -4 -36.5t-5 -55.5t-2 -56v-269q0 -128 -64 -204.5t-191 -76.5zM586 668v37h30q52 0 68 13t16 33q0 17 -7.5 39.5t-15.5 37.5l87 28q4 -24 6 -47.5t2 -44.5
q0 -28 -12 -49.5t-41.5 -34t-83.5 -12.5h-49zM349 738l-17 40l222 115l29 -62z" />
    <glyph glyph-name="uni1EF0" unicode="&#x1ef0;" horiz-adv-x="715" 
d="M376 -15q-127 0 -191 76.5t-64 204.5v299q0 11 -3 34t-6.5 47t-6.5 37l40 -41l-114 16l5 52q8 0 32 -1.5t48.5 -2.5t33.5 -1q32 0 73.5 2t68.5 3l4 -57l-113 -10l37 40q-1 -11 -4 -36t-5 -55.5t-2 -56.5v-268q0 -98 43.5 -160.5t131.5 -62.5q61 0 101 29t60 79.5
t20 114.5v298q0 8 -2 25t-4.5 37t-5 35.5t-3.5 20.5l39 -42l-113 17l5 47h40.5h39.5h25l56 -22q-1 -11 -4 -36.5t-5 -55.5t-2 -56v-269q0 -128 -64 -204.5t-191 -76.5zM586 668v37h30q52 0 68 13t16 33q0 17 -7.5 39.5t-15.5 37.5l87 28q4 -24 6 -47.5t2 -44.5
q0 -28 -12 -49.5t-41.5 -34t-83.5 -12.5h-49zM375 -209q-28 0 -43 17t-15 45q0 29 15 46.5t43 17.5t43 -16.5t15 -47.5q0 -28 -14.5 -45t-43.5 -17z" />
    <glyph glyph-name="uni1EEA" unicode="&#x1eea;" horiz-adv-x="715" 
d="M376 -15q-127 0 -191 76.5t-64 204.5v299q0 11 -3 34t-6.5 47t-6.5 37l40 -41l-114 16l5 52q8 0 32 -1.5t48.5 -2.5t33.5 -1q32 0 73.5 2t68.5 3l4 -57l-113 -10l37 40q-1 -11 -4 -36t-5 -55.5t-2 -56.5v-268q0 -98 43.5 -160.5t131.5 -62.5q61 0 101 29t60 79.5
t20 114.5v298q0 8 -2 25t-4.5 37t-5 35.5t-3.5 20.5l39 -42l-113 17l5 47h40.5h39.5h25l56 -22q-1 -11 -4 -36.5t-5 -55.5t-2 -56v-269q0 -128 -64 -204.5t-191 -76.5zM586 668v37h30q52 0 68 13t16 33q0 17 -7.5 39.5t-15.5 37.5l87 28q4 -24 6 -47.5t2 -44.5
q0 -28 -12 -49.5t-41.5 -34t-83.5 -12.5h-49zM522 738l-234 93l29 62l222 -115z" />
    <glyph glyph-name="uni1EEC" unicode="&#x1eec;" horiz-adv-x="715" 
d="M376 -15q-127 0 -191 76.5t-64 204.5v299q0 11 -3 34t-6.5 47t-6.5 37l40 -41l-114 16l5 52q8 0 32 -1.5t48.5 -2.5t33.5 -1q32 0 73.5 2t68.5 3l4 -57l-113 -10l37 40q-1 -11 -4 -36t-5 -55.5t-2 -56.5v-268q0 -98 43.5 -160.5t131.5 -62.5q61 0 101 29t60 79.5
t20 114.5v298q0 8 -2 25t-4.5 37t-5 35.5t-3.5 20.5l39 -42l-113 17l5 47h40.5h39.5h25l56 -22q-1 -11 -4 -36.5t-5 -55.5t-2 -56v-269q0 -128 -64 -204.5t-191 -76.5zM586 668v37h30q52 0 68 13t16 33q0 17 -7.5 39.5t-15.5 37.5l87 28q4 -24 6 -47.5t2 -44.5
q0 -28 -12 -49.5t-41.5 -34t-83.5 -12.5h-49zM420 738q-20 0 -29.5 10.5t-9.5 20.5q0 17 9 26t21 14.5t21 11.5t9 16q0 11 -8 15.5t-20 4.5t-24 -3.5t-23 -8.5l-16 39q15 5 29.5 8.5t40.5 3.5q42 0 63.5 -14.5t21.5 -34.5q0 -18 -10 -29.5t-22.5 -20t-22.5 -17t-10 -19.5
q0 -9 6 -17q-4 -2 -11 -4t-15 -2z" />
    <glyph glyph-name="uni1EEE" unicode="&#x1eee;" horiz-adv-x="715" 
d="M376 -15q-127 0 -191 76.5t-64 204.5v299q0 11 -3 34t-6.5 47t-6.5 37l40 -41l-114 16l5 52q8 0 32 -1.5t48.5 -2.5t33.5 -1q32 0 73.5 2t68.5 3l4 -57l-113 -10l37 40q-1 -11 -4 -36t-5 -55.5t-2 -56.5v-268q0 -98 43.5 -160.5t131.5 -62.5q61 0 101 29t60 79.5
t20 114.5v298q0 8 -2 25t-4.5 37t-5 35.5t-3.5 20.5l39 -42l-113 17l5 47h40.5h39.5h25l56 -22q-1 -11 -4 -36.5t-5 -55.5t-2 -56v-269q0 -128 -64 -204.5t-191 -76.5zM586 668v37h30q52 0 68 13t16 33q0 17 -7.5 39.5t-15.5 37.5l87 28q4 -24 6 -47.5t2 -44.5
q0 -28 -12 -49.5t-41.5 -34t-83.5 -12.5h-49zM295 733l-35 21q9 22 22.5 45t29.5 39t30 16q15 0 36.5 -6t45 -14.5t45 -14.5t36.5 -6t30 18t24 34l35 -20q-9 -21 -23 -43.5t-29.5 -38.5t-30.5 -16t-36.5 6t-45 14.5t-44.5 14.5t-36 6t-30.5 -18.5t-23.5 -36.5z" />
    <glyph glyph-name="Uhungarumlaut" unicode="&#x170;" horiz-adv-x="782" 
d="M391 -15q-127 0 -191 76.5t-64 204.5v299q0 11 -3 33.5t-6.5 46.5t-6.5 37l41 -41l-115 17l5 52q19 -1 42 -2t43.5 -2t29.5 -1q18 0 45.5 1t54.5 2t43 2l4 -57l-114 -10l37 39q-1 -11 -3.5 -36t-4.5 -55t-2 -56v-269q0 -64 19 -114t58 -78.5t97 -28.5q61 0 100.5 29
t59.5 79t20 113v299q0 8 -2 25t-5 36.5t-5.5 35t-3.5 20.5l44 -42l-117 18l5 52q28 -1 59 -3t46 -2q32 0 67 2t63 3l4 -57l-114 -10l37 39q-1 -11 -3.5 -36t-4.5 -55t-2 -56v-269q0 -128 -64.5 -204.5t-192.5 -76.5zM283 753l-22 37l203 145l38 -56zM458 753l-20 39l214 132
l34 -60z" />
    <glyph glyph-name="uni0216" unicode="&#x216;" horiz-adv-x="782" 
d="M391 -15q-127 0 -191 76.5t-64 204.5v299q0 11 -3 33.5t-6.5 46.5t-6.5 37l41 -41l-115 17l5 52q19 -1 42 -2t43.5 -2t29.5 -1q18 0 45.5 1t54.5 2t43 2l4 -57l-114 -10l37 39q-1 -11 -3.5 -36t-4.5 -55t-2 -56v-269q0 -64 19 -114t58 -78.5t97 -28.5q61 0 100.5 29
t59.5 79t20 113v299q0 8 -2 25t-5 36.5t-5.5 35t-3.5 20.5l44 -42l-117 18l5 52q28 -1 59 -3t46 -2q32 0 67 2t63 3l4 -57l-114 -10l37 39q-1 -11 -3.5 -36t-4.5 -55t-2 -56v-269q0 -128 -64.5 -204.5t-192.5 -76.5zM528 764l-37 -12q-16 33 -42.5 49.5t-55.5 16.5
q-28 0 -54.5 -16.5t-43.5 -49.5l-36 12q13 59 52 88t82 29q44 0 83 -29t52 -88z" />
    <glyph glyph-name="Umacron" unicode="&#x16a;" horiz-adv-x="782" 
d="M391 -15q-127 0 -191 76.5t-64 204.5v299q0 11 -3 33.5t-6.5 46.5t-6.5 37l41 -41l-115 17l5 52q19 -1 42 -2t43.5 -2t29.5 -1q18 0 45.5 1t54.5 2t43 2l4 -57l-114 -10l37 39q-1 -11 -3.5 -36t-4.5 -55t-2 -56v-269q0 -64 19 -114t58 -78.5t97 -28.5q61 0 100.5 29
t59.5 79t20 113v299q0 8 -2 25t-5 36.5t-5.5 35t-3.5 20.5l44 -42l-117 18l5 52q28 -1 59 -3t46 -2q32 0 67 2t63 3l4 -57l-114 -10l37 39q-1 -11 -3.5 -36t-4.5 -55t-2 -56v-269q0 -128 -64.5 -204.5t-192.5 -76.5zM233 753v54h320l-5 -54h-315z" />
    <glyph glyph-name="uni1E7A" unicode="&#x1e7a;" horiz-adv-x="782" 
d="M391 -15q-127 0 -191 76.5t-64 204.5v299q0 11 -3 33.5t-6.5 46.5t-6.5 37l41 -41l-115 17l5 52q19 -1 42 -2t43.5 -2t29.5 -1q18 0 45.5 1t54.5 2t43 2l4 -57l-114 -10l37 39q-1 -11 -3.5 -36t-4.5 -55t-2 -56v-269q0 -64 19 -114t58 -78.5t97 -28.5q61 0 100.5 29
t59.5 79t20 113v299q0 8 -2 25t-5 36.5t-5.5 35t-3.5 20.5l44 -42l-117 18l5 52q28 -1 59 -3t46 -2q32 0 67 2t63 3l4 -57l-114 -10l37 39q-1 -11 -3.5 -36t-4.5 -55t-2 -56v-269q0 -128 -64.5 -204.5t-192.5 -76.5zM239 753v54h300l-5 -54h-295zM478 858q-23 0 -35.5 15.5
t-12.5 38.5q0 25 12.5 40.5t35.5 15.5t35.5 -14.5t12.5 -41.5q0 -24 -12.5 -39t-35.5 -15zM301 858q-23 0 -36 15t-13 39q0 26 13 41t36 15t35 -14.5t12 -41.5q0 -23 -12 -38.5t-35 -15.5z" />
    <glyph glyph-name="Uogonek" unicode="&#x172;" horiz-adv-x="782" 
d="M391 -15q-127 0 -191 76.5t-64 204.5v299q0 11 -3 33.5t-6.5 46.5t-6.5 37l41 -41l-115 17l5 52q19 -1 42 -2t43.5 -2t29.5 -1q18 0 45.5 1t54.5 2t43 2l4 -57l-114 -10l37 39q-1 -11 -3.5 -36t-4.5 -55t-2 -56v-269q0 -64 19 -114t58 -78.5t97 -28.5q61 0 100.5 29
t59.5 79t20 113v299q0 8 -2 25t-5 36.5t-5.5 35t-3.5 20.5l44 -42l-117 18l5 52q28 -1 59 -3t46 -2q32 0 67 2t63 3l4 -57l-114 -10l37 39q-1 -11 -3.5 -36t-4.5 -55t-2 -56v-269q0 -128 -64.5 -204.5t-192.5 -76.5zM432 -210q-25 0 -52 8t-45.5 28t-18.5 55q0 33 23.5 65.5
t84.5 62.5l65 -9q-47 -19 -74 -53t-27 -62q0 -19 14.5 -32.5t45.5 -13.5q8 0 17 1.5t17 3.5l11 -43q-13 -5 -29.5 -8t-31.5 -3z" />
    <glyph glyph-name="Uring" unicode="&#x16e;" horiz-adv-x="782" 
d="M391 -15q-127 0 -191 76.5t-64 204.5v299q0 11 -3 33.5t-6.5 46.5t-6.5 37l41 -41l-115 17l5 52q19 -1 42 -2t43.5 -2t29.5 -1q18 0 45.5 1t54.5 2t43 2l4 -57l-114 -10l37 39q-1 -11 -3.5 -36t-4.5 -55t-2 -56v-269q0 -64 19 -114t58 -78.5t97 -28.5q61 0 100.5 29
t59.5 79t20 113v299q0 8 -2 25t-5 36.5t-5.5 35t-3.5 20.5l44 -42l-117 18l5 52q28 -1 59 -3t46 -2q32 0 67 2t63 3l4 -57l-114 -10l37 39q-1 -11 -3.5 -36t-4.5 -55t-2 -56v-269q0 -128 -64.5 -204.5t-192.5 -76.5zM393 753q-45 0 -67.5 23.5t-22.5 61.5t22.5 61.5
t67.5 23.5t66.5 -23.5t21.5 -61.5t-21.5 -61.5t-66.5 -23.5zM393 790q24 0 34 14.5t10 33.5q0 20 -10 34.5t-34 14.5q-22 0 -32.5 -14.5t-10.5 -34.5q0 -19 10.5 -33.5t32.5 -14.5z" />
    <glyph glyph-name="Utilde" unicode="&#x168;" horiz-adv-x="782" 
d="M391 -15q-127 0 -191 76.5t-64 204.5v299q0 11 -3 33.5t-6.5 46.5t-6.5 37l41 -41l-115 17l5 52q19 -1 42 -2t43.5 -2t29.5 -1q18 0 45.5 1t54.5 2t43 2l4 -57l-114 -10l37 39q-1 -11 -3.5 -36t-4.5 -55t-2 -56v-269q0 -64 19 -114t58 -78.5t97 -28.5q61 0 100.5 29
t59.5 79t20 113v299q0 8 -2 25t-5 36.5t-5.5 35t-3.5 20.5l44 -42l-117 18l5 52q28 -1 59 -3t46 -2q32 0 67 2t63 3l4 -57l-114 -10l37 39q-1 -11 -3.5 -36t-4.5 -55t-2 -56v-269q0 -128 -64.5 -204.5t-192.5 -76.5zM261 748l-35 21q9 22 22.5 45t29.5 39t30 16
q15 0 36.5 -6t45 -14.5t45 -14.5t36.5 -6t30 18t24 34l35 -20q-9 -21 -23 -43.5t-29.5 -38.5t-30.5 -16t-36.5 6t-45 14.5t-44.5 14.5t-36 6t-30.5 -18.5t-23.5 -36.5z" />
    <glyph glyph-name="uni1E78" unicode="&#x1e78;" horiz-adv-x="782" 
d="M391 -15q-127 0 -191 76.5t-64 204.5v299q0 11 -3 33.5t-6.5 46.5t-6.5 37l41 -41l-115 17l5 52q19 -1 42 -2t43.5 -2t29.5 -1q18 0 45.5 1t54.5 2t43 2l4 -57l-114 -10l37 39q-1 -11 -3.5 -36t-4.5 -55t-2 -56v-269q0 -64 19 -114t58 -78.5t97 -28.5q61 0 100.5 29
t59.5 79t20 113v299q0 8 -2 25t-5 36.5t-5.5 35t-3.5 20.5l44 -42l-117 18l5 52q28 -1 59 -3t46 -2q32 0 67 2t63 3l4 -57l-114 -10l37 39q-1 -11 -3.5 -36t-4.5 -55t-2 -56v-269q0 -128 -64.5 -204.5t-192.5 -76.5zM274 743l-30 18q9 20 21.5 42t27 37t27.5 15
q18 0 44.5 -10t53.5 -20t45 -10q15 0 29.5 16t22.5 32l29 -17q-1 -3 -8 -17.5t-17.5 -31t-23.5 -29t-26 -12.5q-18 0 -44.5 10l-53 20t-44.5 10q-15 0 -30 -18t-23 -35zM334 865l-24 35l186 98l38 -55z" />
    <glyph glyph-name="V" unicode="V" horiz-adv-x="775" 
d="M374 0l-216 557q-9 24 -21 46t-22.5 39.5t-15.5 24.5l49 -32l-102 23l5 52q19 -1 42.5 -2t43.5 -2t30 -1q35 0 69 1.5t68 3.5l4 -57l-112 -16l29 34q2 -13 6 -35.5t11.5 -49t17.5 -51.5l163 -423h-24l163 469q5 14 7.5 32.5t3.5 36t1 27.5l27 -39l-115 20l5 52
q30 -2 53.5 -3.5t33.5 -1.5q38 0 73.5 1.5t71.5 3.5l4 -57l-94 -11l49 29q-5 -9 -15 -26t-22 -41t-24 -56l-190 -548h-57z" />
    <glyph glyph-name="W" unicode="W" horiz-adv-x="1105" 
d="M339 0l-184 557q-9 28 -21 51.5t-22 39.5t-14 21l51 -34l-103 23l5 52q19 -1 42.5 -2t43.5 -2t30 -1q24 0 48.5 1t48 2t41.5 2l4 -57l-113 -16l31 28q2 -15 5.5 -33t9.5 -41.5t15 -55.5l128 -424h-19l169 575h49l182 -575h-20l135 470q5 19 7.5 36t3.5 30t1 20l33 -31
l-111 22l5 52q28 -2 51 -3.5t37 -1.5q26 0 52.5 1t50.5 2t42 2l4 -57l-105 -11l51 33q-8 -14 -20 -34.5t-23.5 -44.5t-19.5 -48l-164 -548h-57l-180 545h19l-162 -545h-57z" />
    <glyph glyph-name="Wacute" unicode="&#x1e82;" horiz-adv-x="1105" 
d="M339 0l-184 557q-9 28 -21 51.5t-22 39.5t-14 21l51 -34l-103 23l5 52q19 -1 42.5 -2t43.5 -2t30 -1q24 0 48.5 1t48 2t41.5 2l4 -57l-113 -16l31 28q2 -15 5.5 -33t9.5 -41.5t15 -55.5l128 -424h-19l169 575h49l182 -575h-20l135 470q5 19 7.5 36t3.5 30t1 20l33 -31
l-111 22l5 52q28 -2 51 -3.5t37 -1.5q26 0 52.5 1t50.5 2t42 2l4 -57l-105 -11l51 33q-8 -14 -20 -34.5t-23.5 -44.5t-19.5 -48l-164 -548h-57l-180 545h19l-162 -545h-57zM474 738l-17 40l222 115l29 -62z" />
    <glyph glyph-name="Wcircumflex" unicode="&#x174;" horiz-adv-x="1105" 
d="M339 0l-184 557q-9 28 -21 51.5t-22 39.5t-14 21l51 -34l-103 23l5 52q19 -1 42.5 -2t43.5 -2t30 -1q24 0 48.5 1t48 2t41.5 2l4 -57l-113 -16l31 28q2 -15 5.5 -33t9.5 -41.5t15 -55.5l128 -424h-19l169 575h49l182 -575h-20l135 470q5 19 7.5 36t3.5 30t1 20l33 -31
l-111 22l5 52q28 -2 51 -3.5t37 -1.5q26 0 52.5 1t50.5 2t42 2l4 -57l-105 -11l51 33q-8 -14 -20 -34.5t-23.5 -44.5t-19.5 -48l-164 -548h-57l-180 545h19l-162 -545h-57zM688 707l-190 86l33 39h39l140 -90zM388 707l-22 35l141 90h39l33 -39z" />
    <glyph glyph-name="Wdieresis" unicode="&#x1e84;" horiz-adv-x="1105" 
d="M339 0l-184 557q-9 28 -21 51.5t-22 39.5t-14 21l51 -34l-103 23l5 52q19 -1 42.5 -2t43.5 -2t30 -1q24 0 48.5 1t48 2t41.5 2l4 -57l-113 -16l31 28q2 -15 5.5 -33t9.5 -41.5t15 -55.5l128 -424h-19l169 575h49l182 -575h-20l135 470q5 19 7.5 36t3.5 30t1 20l33 -31
l-111 22l5 52q28 -2 51 -3.5t37 -1.5q26 0 52.5 1t50.5 2t42 2l4 -57l-105 -11l51 33q-8 -14 -20 -34.5t-23.5 -44.5t-19.5 -48l-164 -548h-57l-180 545h19l-162 -545h-57zM643 738q-26 0 -40.5 15t-14.5 42q0 25 15 40t40 15t39.5 -14t14.5 -41t-14 -42t-40 -15zM462 738
q-26 0 -40.5 15t-14.5 42q0 25 15 40t40 15q24 0 39 -14t15 -41t-14.5 -42t-39.5 -15z" />
    <glyph glyph-name="Wgrave" unicode="&#x1e80;" horiz-adv-x="1105" 
d="M339 0l-184 557q-9 28 -21 51.5t-22 39.5t-14 21l51 -34l-103 23l5 52q19 -1 42.5 -2t43.5 -2t30 -1q24 0 48.5 1t48 2t41.5 2l4 -57l-113 -16l31 28q2 -15 5.5 -33t9.5 -41.5t15 -55.5l128 -424h-19l169 575h49l182 -575h-20l135 470q5 19 7.5 36t3.5 30t1 20l33 -31
l-111 22l5 52q28 -2 51 -3.5t37 -1.5q26 0 52.5 1t50.5 2t42 2l4 -57l-105 -11l51 33q-8 -14 -20 -34.5t-23.5 -44.5t-19.5 -48l-164 -548h-57l-180 545h19l-162 -545h-57zM647 738l-234 93l29 62l222 -115z" />
    <glyph glyph-name="X" unicode="X" horiz-adv-x="796" 
d="M57 -5l-4 47l97 27l-42 -18q4 5 17.5 18.5t31 31.5t33 35t22.5 28l151 220v-56l-163 230q-8 13 -23 33l-28.5 38t-18.5 24l41 -19l-101 24l5 52q19 -1 42 -2t43.5 -2t29.5 -1q29 0 69.5 2t77.5 3l4 -57l-116 -16l29 18q4 -7 11.5 -26.5t17 -40.5t17.5 -33l118 -165
l-38 -1l117 189q9 15 22 40.5t21 42.5l25 -25l-113 22l5 52q25 -1 55 -3t45 -2q31 0 73.5 2t81.5 3l4 -57l-104 -11l60 25q-7 -6 -23 -19.5t-34 -29.5t-32 -29.5t-18 -19.5l-149 -231v58l188 -264q6 -8 20 -24t30 -32.5t26 -26.5l-48 19l112 -15l-5 -53h-112q-15 0 -41 -1
t-55 -2t-55 -2l-4 47l101 29l-25 -28q-5 14 -14 32t-19.5 36.5t-19.5 30.5l-135 191h38l-135 -201q-7 -10 -15 -26.5t-15.5 -33t-13.5 -27.5l-25 23l109 -15l-5 -53h-96q-14 0 -39 -1t-53.5 -2t-52.5 -2z" />
    <glyph glyph-name="Y" unicode="Y" horiz-adv-x="729" 
d="M334 238l-164 316q-20 40 -44.5 72.5t-32.5 42.5l54 -35l-101 24l5 52q19 -1 42 -2t43.5 -2t29.5 -1q46 0 86 2t53 3l4 -57l-116 -16l28 31q0 -10 10.5 -46t41.5 -92l116 -218l-31 -1l131 266q8 16 17.5 37.5t17.5 39t9 21.5l19 -39l-112 22l5 52q23 -1 48.5 -3t40.5 -2
q47 0 89 2t55 3l4 -57l-104 -11l52 27q-9 -10 -32.5 -43t-49.5 -81l-157 -307h-57zM239 -5l-5 49l114 23l-39 -39q2 9 5 30.5t6 44t3 32.5v186h86v-156q0 -26 2 -52.5t5 -49t5 -35.5l-39 35l126 -10l-7 -53h-128q-6 0 -29 -1t-51.5 -2t-53.5 -2z" />
    <glyph glyph-name="Yacute" unicode="&#xdd;" horiz-adv-x="729" 
d="M334 238l-164 316q-20 40 -44.5 72.5t-32.5 42.5l54 -35l-101 24l5 52q19 -1 42 -2t43.5 -2t29.5 -1q46 0 86 2t53 3l4 -57l-116 -16l28 31q0 -10 10.5 -46t41.5 -92l116 -218l-31 -1l131 266q8 16 17.5 37.5t17.5 39t9 21.5l19 -39l-112 22l5 52q23 -1 48.5 -3t40.5 -2
q47 0 89 2t55 3l4 -57l-104 -11l52 27q-9 -10 -32.5 -43t-49.5 -81l-157 -307h-57zM239 -5l-5 49l114 23l-39 -39q2 9 5 30.5t6 44t3 32.5v186h86v-156q0 -26 2 -52.5t5 -49t5 -35.5l-39 35l126 -10l-7 -53h-128q-6 0 -29 -1t-51.5 -2t-53.5 -2zM292 753l-17 40l222 115
l29 -62z" />
    <glyph glyph-name="Ycircumflex" unicode="&#x176;" horiz-adv-x="729" 
d="M334 238l-164 316q-20 40 -44.5 72.5t-32.5 42.5l54 -35l-101 24l5 52q19 -1 42 -2t43.5 -2t29.5 -1q46 0 86 2t53 3l4 -57l-116 -16l28 31q0 -10 10.5 -46t41.5 -92l116 -218l-31 -1l131 266q8 16 17.5 37.5t17.5 39t9 21.5l19 -39l-112 22l5 52q23 -1 48.5 -3t40.5 -2
q47 0 89 2t55 3l4 -57l-104 -11l52 27q-9 -10 -32.5 -43t-49.5 -81l-157 -307h-57zM239 -5l-5 49l114 23l-39 -39q2 9 5 30.5t6 44t3 32.5v186h86v-156q0 -26 2 -52.5t5 -49t5 -35.5l-39 35l126 -10l-7 -53h-128q-6 0 -29 -1t-51.5 -2t-53.5 -2zM520 753l-190 86l33 39h39
l140 -90zM220 753l-22 35l141 90h39l33 -39z" />
    <glyph glyph-name="Ydieresis" unicode="&#x178;" horiz-adv-x="729" 
d="M334 238l-164 316q-20 40 -44.5 72.5t-32.5 42.5l54 -35l-101 24l5 52q19 -1 42 -2t43.5 -2t29.5 -1q46 0 86 2t53 3l4 -57l-116 -16l28 31q0 -10 10.5 -46t41.5 -92l116 -218l-31 -1l131 266q8 16 17.5 37.5t17.5 39t9 21.5l19 -39l-112 22l5 52q23 -1 48.5 -3t40.5 -2
q47 0 89 2t55 3l4 -57l-104 -11l52 27q-9 -10 -32.5 -43t-49.5 -81l-157 -307h-57zM239 -5l-5 49l114 23l-39 -39q2 9 5 30.5t6 44t3 32.5v186h86v-156q0 -26 2 -52.5t5 -49t5 -35.5l-39 35l126 -10l-7 -53h-128q-6 0 -29 -1t-51.5 -2t-53.5 -2zM461 753q-26 0 -40.5 15
t-14.5 42q0 25 15 40t40 15t39.5 -14t14.5 -41t-14 -42t-40 -15zM280 753q-26 0 -40.5 15t-14.5 42q0 25 15 40t40 15q24 0 39 -14t15 -41t-14.5 -42t-39.5 -15z" />
    <glyph glyph-name="uni1E8E" unicode="&#x1e8e;" horiz-adv-x="729" 
d="M334 238l-164 316q-20 40 -44.5 72.5t-32.5 42.5l54 -35l-101 24l5 52q19 -1 42 -2t43.5 -2t29.5 -1q46 0 86 2t53 3l4 -57l-116 -16l28 31q0 -10 10.5 -46t41.5 -92l116 -218l-31 -1l131 266q8 16 17.5 37.5t17.5 39t9 21.5l19 -39l-112 22l5 52q23 -1 48.5 -3t40.5 -2
q47 0 89 2t55 3l4 -57l-104 -11l52 27q-9 -10 -32.5 -43t-49.5 -81l-157 -307h-57zM239 -5l-5 49l114 23l-39 -39q2 9 5 30.5t6 44t3 32.5v186h86v-156q0 -26 2 -52.5t5 -49t5 -35.5l-39 35l126 -10l-7 -53h-128q-6 0 -29 -1t-51.5 -2t-53.5 -2zM370 754q-28 0 -43 17
t-15 45q0 29 15 46.5t43 17.5t43 -16.5t15 -47.5q0 -28 -14.5 -45t-43.5 -17z" />
    <glyph glyph-name="uni1EF4" unicode="&#x1ef4;" horiz-adv-x="729" 
d="M334 238l-164 316q-20 40 -44.5 72.5t-32.5 42.5l54 -35l-101 24l5 52q19 -1 42 -2t43.5 -2t29.5 -1q46 0 86 2t53 3l4 -57l-116 -16l28 31q0 -10 10.5 -46t41.5 -92l116 -218l-31 -1l131 266q8 16 17.5 37.5t17.5 39t9 21.5l19 -39l-112 22l5 52q23 -1 48.5 -3t40.5 -2
q47 0 89 2t55 3l4 -57l-104 -11l52 27q-9 -10 -32.5 -43t-49.5 -81l-157 -307h-57zM239 -5l-5 49l114 23l-39 -39q2 9 5 30.5t6 44t3 32.5v186h86v-156q0 -26 2 -52.5t5 -49t5 -35.5l-39 35l126 -10l-7 -53h-128q-6 0 -29 -1t-51.5 -2t-53.5 -2zM361 -209q-28 0 -43 17
t-15 45q0 29 15 46.5t43 17.5t43 -16.5t15 -47.5q0 -28 -14.5 -45t-43.5 -17z" />
    <glyph glyph-name="Ygrave" unicode="&#x1ef2;" horiz-adv-x="729" 
d="M334 238l-164 316q-20 40 -44.5 72.5t-32.5 42.5l54 -35l-101 24l5 52q19 -1 42 -2t43.5 -2t29.5 -1q46 0 86 2t53 3l4 -57l-116 -16l28 31q0 -10 10.5 -46t41.5 -92l116 -218l-31 -1l131 266q8 16 17.5 37.5t17.5 39t9 21.5l19 -39l-112 22l5 52q23 -1 48.5 -3t40.5 -2
q47 0 89 2t55 3l4 -57l-104 -11l52 27q-9 -10 -32.5 -43t-49.5 -81l-157 -307h-57zM239 -5l-5 49l114 23l-39 -39q2 9 5 30.5t6 44t3 32.5v186h86v-156q0 -26 2 -52.5t5 -49t5 -35.5l-39 35l126 -10l-7 -53h-128q-6 0 -29 -1t-51.5 -2t-53.5 -2zM465 753l-234 93l29 62
l222 -115z" />
    <glyph glyph-name="uni1EF6" unicode="&#x1ef6;" horiz-adv-x="729" 
d="M334 238l-164 316q-20 40 -44.5 72.5t-32.5 42.5l54 -35l-101 24l5 52q19 -1 42 -2t43.5 -2t29.5 -1q46 0 86 2t53 3l4 -57l-116 -16l28 31q0 -10 10.5 -46t41.5 -92l116 -218l-31 -1l131 266q8 16 17.5 37.5t17.5 39t9 21.5l19 -39l-112 22l5 52q23 -1 48.5 -3t40.5 -2
q47 0 89 2t55 3l4 -57l-104 -11l52 27q-9 -10 -32.5 -43t-49.5 -81l-157 -307h-57zM239 -5l-5 49l114 23l-39 -39q2 9 5 30.5t6 44t3 32.5v186h86v-156q0 -26 2 -52.5t5 -49t5 -35.5l-39 35l126 -10l-7 -53h-128q-6 0 -29 -1t-51.5 -2t-53.5 -2zM363 753q-20 0 -29.5 10.5
t-9.5 20.5q0 17 9 26t21 14.5t21 11.5t9 16q0 11 -8 15.5t-20 4.5t-24 -3.5t-23 -8.5l-16 39q15 5 29.5 8.5t40.5 3.5q42 0 63.5 -14.5t21.5 -34.5q0 -18 -10 -29.5t-22.5 -20t-22.5 -17t-10 -19.5q0 -9 6 -17q-4 -2 -11 -4t-15 -2z" />
    <glyph glyph-name="uni0232" unicode="&#x232;" horiz-adv-x="729" 
d="M334 238l-164 316q-20 40 -44.5 72.5t-32.5 42.5l54 -35l-101 24l5 52q19 -1 42 -2t43.5 -2t29.5 -1q46 0 86 2t53 3l4 -57l-116 -16l28 31q0 -10 10.5 -46t41.5 -92l116 -218l-31 -1l131 266q8 16 17.5 37.5t17.5 39t9 21.5l19 -39l-112 22l5 52q23 -1 48.5 -3t40.5 -2
q47 0 89 2t55 3l4 -57l-104 -11l52 27q-9 -10 -32.5 -43t-49.5 -81l-157 -307h-57zM239 -5l-5 49l114 23l-39 -39q2 9 5 30.5t6 44t3 32.5v186h86v-156q0 -26 2 -52.5t5 -49t5 -35.5l-39 35l126 -10l-7 -53h-128q-6 0 -29 -1t-51.5 -2t-53.5 -2zM210 753v54h320l-5 -54h-315
z" />
    <glyph glyph-name="uni1EF8" unicode="&#x1ef8;" horiz-adv-x="729" 
d="M334 238l-164 316q-20 40 -44.5 72.5t-32.5 42.5l54 -35l-101 24l5 52q19 -1 42 -2t43.5 -2t29.5 -1q46 0 86 2t53 3l4 -57l-116 -16l28 31q0 -10 10.5 -46t41.5 -92l116 -218l-31 -1l131 266q8 16 17.5 37.5t17.5 39t9 21.5l19 -39l-112 22l5 52q23 -1 48.5 -3t40.5 -2
q47 0 89 2t55 3l4 -57l-104 -11l52 27q-9 -10 -32.5 -43t-49.5 -81l-157 -307h-57zM239 -5l-5 49l114 23l-39 -39q2 9 5 30.5t6 44t3 32.5v186h86v-156q0 -26 2 -52.5t5 -49t5 -35.5l-39 35l126 -10l-7 -53h-128q-6 0 -29 -1t-51.5 -2t-53.5 -2zM238 748l-35 21
q9 22 22.5 45t29.5 39t30 16q15 0 36.5 -6t45 -14.5t45 -14.5t36.5 -6t30 18t24 34l35 -20q-9 -21 -23 -43.5t-29.5 -38.5t-30.5 -16t-36.5 6t-45 14.5t-44.5 14.5t-36 6t-30.5 -18.5t-23.5 -36.5z" />
    <glyph glyph-name="Z" unicode="Z" horiz-adv-x="629" 
d="M530 -4q-28 2 -56.5 3t-57.5 1h-345l-7 55q18 25 39.5 56t41.5 60t31 47l191 302q25 38 46 78.5t43 80.5l17 -31h-220q-18 0 -40 -1.5t-41.5 -2.5t-28.5 -2l39 32l-31 -65q-2 -3 -4.5 -18.5t-5 -34t-3.5 -32.5l-57 5l7 168l19 18q19 -2 38.5 -4t38.5 -3.5t37 -2.5h327
l7 -54q-28 -40 -55 -77t-53 -78l-194 -306q-7 -12 -23 -41t-34.5 -62.5t-33.5 -61.5l-16 32h240q20 0 46.5 3t51 6.5t36.5 5.5l-74 -45q9 11 19.5 26t18.5 28.5t11 18.5q2 5 5 21t6 33t4 24l54 -5l-15 -159z" />
    <glyph glyph-name="Zacute" unicode="&#x179;" horiz-adv-x="629" 
d="M530 -4q-28 2 -56.5 3t-57.5 1h-345l-7 55q18 25 39.5 56t41.5 60t31 47l191 302q25 38 46 78.5t43 80.5l17 -31h-220q-18 0 -40 -1.5t-41.5 -2.5t-28.5 -2l39 32l-31 -65q-2 -3 -4.5 -18.5t-5 -34t-3.5 -32.5l-57 5l7 168l19 18q19 -2 38.5 -4t38.5 -3.5t37 -2.5h327
l7 -54q-28 -40 -55 -77t-53 -78l-194 -306q-7 -12 -23 -41t-34.5 -62.5t-33.5 -61.5l-16 32h240q20 0 46.5 3t51 6.5t36.5 5.5l-74 -45q9 11 19.5 26t18.5 28.5t11 18.5q2 5 5 21t6 33t4 24l54 -5l-15 -159zM238 753l-17 40l222 115l29 -62z" />
    <glyph glyph-name="Zcaron" unicode="&#x17d;" horiz-adv-x="629" 
d="M530 -4q-28 2 -56.5 3t-57.5 1h-345l-7 55q18 25 39.5 56t41.5 60t31 47l191 302q25 38 46 78.5t43 80.5l17 -31h-220q-18 0 -40 -1.5t-41.5 -2.5t-28.5 -2l39 32l-31 -65q-2 -3 -4.5 -18.5t-5 -34t-3.5 -32.5l-57 5l7 168l19 18q19 -2 38.5 -4t38.5 -3.5t37 -2.5h327
l7 -54q-28 -40 -55 -77t-53 -78l-194 -306q-7 -12 -23 -41t-34.5 -62.5t-33.5 -61.5l-16 32h240q20 0 46.5 3t51 6.5t36.5 5.5l-74 -45q9 11 19.5 26t18.5 28.5t11 18.5q2 5 5 21t6 33t4 24l54 -5l-15 -159zM166 878l190 -86l-33 -39h-39l-140 90zM466 878l22 -35l-141 -90
h-39l-33 39z" />
    <glyph glyph-name="Zdotaccent" unicode="&#x17b;" horiz-adv-x="629" 
d="M530 -4q-28 2 -56.5 3t-57.5 1h-345l-7 55q18 25 39.5 56t41.5 60t31 47l191 302q25 38 46 78.5t43 80.5l17 -31h-220q-18 0 -40 -1.5t-41.5 -2.5t-28.5 -2l39 32l-31 -65q-2 -3 -4.5 -18.5t-5 -34t-3.5 -32.5l-57 5l7 168l19 18q19 -2 38.5 -4t38.5 -3.5t37 -2.5h327
l7 -54q-28 -40 -55 -77t-53 -78l-194 -306q-7 -12 -23 -41t-34.5 -62.5t-33.5 -61.5l-16 32h240q20 0 46.5 3t51 6.5t36.5 5.5l-74 -45q9 11 19.5 26t18.5 28.5t11 18.5q2 5 5 21t6 33t4 24l54 -5l-15 -159zM316 754q-28 0 -43 17t-15 45q0 29 15 46.5t43 17.5t43 -16.5
t15 -47.5q0 -28 -14.5 -45t-43.5 -17z" />
    <glyph glyph-name="uni1E92" unicode="&#x1e92;" horiz-adv-x="629" 
d="M530 -4q-28 2 -56.5 3t-57.5 1h-345l-7 55q18 25 39.5 56t41.5 60t31 47l191 302q25 38 46 78.5t43 80.5l17 -31h-220q-18 0 -40 -1.5t-41.5 -2.5t-28.5 -2l39 32l-31 -65q-2 -3 -4.5 -18.5t-5 -34t-3.5 -32.5l-57 5l7 168l19 18q19 -2 38.5 -4t38.5 -3.5t37 -2.5h327
l7 -54q-28 -40 -55 -77t-53 -78l-194 -306q-7 -12 -23 -41t-34.5 -62.5t-33.5 -61.5l-16 32h240q20 0 46.5 3t51 6.5t36.5 5.5l-74 -45q9 11 19.5 26t18.5 28.5t11 18.5q2 5 5 21t6 33t4 24l54 -5l-15 -159zM316 -209q-28 0 -43 17t-15 45q0 29 15 46.5t43 17.5t43 -16.5
t15 -47.5q0 -28 -14.5 -45t-43.5 -17z" />
    <glyph glyph-name="Iacute_J.loclNLD" horiz-adv-x="737" 
d="M61 -5l-5 49l114 23l-39 -39q2 9 5 30.5t6 44t3 32.5v435q0 11 -2.5 32.5t-6 43.5t-5.5 32l39 -38l-112 18l5 52q19 -1 42 -2t43.5 -2t29.5 -1q34 0 67.5 1.5t67.5 3.5l4 -57l-113 -10l38 35q-1 -8 -4 -31t-5 -52t-2 -55v-375q0 -26 2 -52.5t5 -49t5 -35.5l-39 35
l126 -10l-7 -53h-128q-33 0 -66.5 -1.5t-67.5 -3.5zM111 753l-17 40l222 115l29 -62zM470 -200l-32 21q13 27 27 58t26 59t19.5 47.5t7.5 25.5v559q0 11 -3 33t-6 43t-5 28l39 -34l-112 18l5 52q19 -1 42 -2t43.5 -2t29.5 -1q30 0 62 1.5t53.5 2.5t19.5 1l4 -57l-113 -10
l37 31q-1 -13 -3.5 -34.5t-4.5 -47.5t-2 -52v-552q0 -10 -14.5 -32.5t-36 -51t-44 -56.5t-39.5 -48zM484 738l-17 40l222 115l29 -62z" />
    <glyph glyph-name="germandbls.calt" horiz-adv-x="770" 
d="M51 -5l-5 49l114 23l-39 -45q2 11 5 33.5t6 45.5t3 34v330q0 76 21.5 125.5t59.5 78t87.5 40t106.5 11.5q50 0 98.5 -5.5t103.5 -16.5l10 -30l-208 -295l-71 12l199 288l2 -33q-40 12 -75.5 17t-74.5 5q-47 0 -85.5 -19.5t-60.5 -63t-22 -114.5v-300q0 -13 0.5 -32
t1 -39.5t1 -40.5t1.5 -36l-18 -17h-22q-10 0 -34.5 -1t-52.5 -2t-52 -2zM493 -10q-33 0 -63 5.5t-57.5 16.5t-56.5 26l15 151l65 -6v-46q0 -9 1.5 -25.5t3.5 -33.5t3 -26l-13 28q8 -7 24 -14.5t37.5 -12.5t43.5 -5q53 0 84.5 31.5t31.5 86.5q0 25 -10 49.5t-39.5 50.5
t-87.5 54l-132 65l93 63l114 -59q66 -34 101 -67t48.5 -68.5t13.5 -77.5q0 -56 -27.5 -98t-77 -65t-115.5 -23z" />
    <glyph glyph-name="germandbls.case" horiz-adv-x="770" 
d="M51 -5l-5 49l114 23l-39 -45q2 11 5 33.5t6 45.5t3 34v330q0 76 21.5 125.5t59.5 78t87.5 40t106.5 11.5q50 0 98.5 -5.5t103.5 -16.5l10 -30l-208 -295l-71 12l199 288l2 -33q-40 12 -75.5 17t-74.5 5q-47 0 -85.5 -19.5t-60.5 -63t-22 -114.5v-300q0 -13 0.5 -32
t1 -39.5t1 -40.5t1.5 -36l-18 -17h-22q-10 0 -34.5 -1t-52.5 -2t-52 -2zM493 -10q-33 0 -63 5.5t-57.5 16.5t-56.5 26l15 151l65 -6v-46q0 -9 1.5 -25.5t3.5 -33.5t3 -26l-13 28q8 -7 24 -14.5t37.5 -12.5t43.5 -5q53 0 84.5 31.5t31.5 86.5q0 25 -10 49.5t-39.5 50.5
t-87.5 54l-132 65l93 63l114 -59q66 -34 101 -67t48.5 -68.5t13.5 -77.5q0 -56 -27.5 -98t-77 -65t-115.5 -23z" />
    <glyph glyph-name="Ccedilla.ss03" horiz-adv-x="675" 
d="M387 -15q-104 0 -174 46.5t-105 129t-35 191.5t35 192t105 129.5t174 46.5q62 0 111 -11t96 -23l-10 -146l-58 4v46q0 10 -7 34t-12 42l26 -33q-29 13 -70.5 22.5t-75.5 9.5q-72 0 -120.5 -41.5t-72.5 -112t-24 -158.5q0 -87 24 -158t72 -113t120 -42q36 0 80.5 8.5
t75.5 21.5l-28 -34q6 15 11 31.5t8.5 30.5t3.5 21l2 47l58 2l6 -149q-47 -12 -101 -23t-115 -11zM369 -251l-35 13q17 54 23.5 92t-12.5 74l6 11l51 16q21 -26 16 -73t-49 -133z" />
    <glyph glyph-name="a" unicode="a" horiz-adv-x="517" 
d="M189 -10q-67 0 -106 34.5t-39 92.5q0 52 33.5 86.5t100.5 45.5l175 29v-49l-163 -31q-30 -5 -47 -23t-17 -44q0 -38 19.5 -59.5t55.5 -21.5q53 0 92.5 34t46.5 84v141q0 72 -24 107.5t-72 35.5q-21 0 -45 -4t-45 -11t-32 -15l31 43l-12 -75l1 -41l-58 -3l-10 133
q30 8 60 13t60 7.5t60 2.5q89 0 125 -48.5t36 -166.5v-123q0 -45 5.5 -78.5t9.5 -52.5l-33 30l98 -11l-6 -52h-125l-20 113l18 3q-2 -28 -26.5 -57.5t-63 -49t-83.5 -19.5z" />
    <glyph glyph-name="aacute" unicode="&#xe1;" horiz-adv-x="517" 
d="M189 -10q-67 0 -106 34.5t-39 92.5q0 52 33.5 86.5t100.5 45.5l175 29v-49l-163 -31q-30 -5 -47 -23t-17 -44q0 -38 19.5 -59.5t55.5 -21.5q53 0 92.5 34t46.5 84v141q0 72 -24 107.5t-72 35.5q-21 0 -45 -4t-45 -11t-32 -15l31 43l-12 -75l1 -41l-58 -3l-10 133
q30 8 60 13t60 7.5t60 2.5q89 0 125 -48.5t36 -166.5v-123q0 -45 5.5 -78.5t9.5 -52.5l-33 30l98 -11l-6 -52h-125l-20 113l18 3q-2 -28 -26.5 -57.5t-63 -49t-83.5 -19.5zM192 543l-38 32l157 165l55 -47z" />
    <glyph glyph-name="abreve" unicode="&#x103;" horiz-adv-x="517" 
d="M189 -10q-67 0 -106 34.5t-39 92.5q0 52 33.5 86.5t100.5 45.5l175 29v-49l-163 -31q-30 -5 -47 -23t-17 -44q0 -38 19.5 -59.5t55.5 -21.5q53 0 92.5 34t46.5 84v141q0 72 -24 107.5t-72 35.5q-21 0 -45 -4t-45 -11t-32 -15l31 43l-12 -75l1 -41l-58 -3l-10 133
q30 8 60 13t60 7.5t60 2.5q89 0 125 -48.5t36 -166.5v-123q0 -45 5.5 -78.5t9.5 -52.5l-33 30l98 -11l-6 -52h-125l-20 113l18 3q-2 -28 -26.5 -57.5t-63 -49t-83.5 -19.5zM95 677l37 12q17 -33 43.5 -49.5t54.5 -16.5q29 0 55.5 16.5t42.5 49.5l36 -12q-13 -58 -51.5 -87.5
t-82.5 -29.5t-83 29.5t-52 87.5z" />
    <glyph glyph-name="uni1EAF" unicode="&#x1eaf;" horiz-adv-x="517" 
d="M189 -10q-67 0 -106 34.5t-39 92.5q0 52 33.5 86.5t100.5 45.5l175 29v-49l-163 -31q-30 -5 -47 -23t-17 -44q0 -38 19.5 -59.5t55.5 -21.5q53 0 92.5 34t46.5 84v141q0 72 -24 107.5t-72 35.5q-21 0 -45 -4t-45 -11t-32 -15l31 43l-12 -75l1 -41l-58 -3l-10 133
q30 8 60 13t60 7.5t60 2.5q89 0 125 -48.5t36 -166.5v-123q0 -45 5.5 -78.5t9.5 -52.5l-33 30l98 -11l-6 -52h-125l-20 113l18 3q-2 -28 -26.5 -57.5t-63 -49t-83.5 -19.5zM230 543q-43 0 -82.5 23.5t-52.5 72.5l37 12q15 -28 42.5 -42.5t55.5 -14.5q29 0 55.5 14.5
t42.5 42.5l36 -12q-7 -32 -28 -53.5t-49 -32t-57 -10.5zM167 654l-24 35l186 98l38 -55z" />
    <glyph glyph-name="uni1EB7" unicode="&#x1eb7;" horiz-adv-x="517" 
d="M189 -10q-67 0 -106 34.5t-39 92.5q0 52 33.5 86.5t100.5 45.5l175 29v-49l-163 -31q-30 -5 -47 -23t-17 -44q0 -38 19.5 -59.5t55.5 -21.5q53 0 92.5 34t46.5 84v141q0 72 -24 107.5t-72 35.5q-21 0 -45 -4t-45 -11t-32 -15l31 43l-12 -75l1 -41l-58 -3l-10 133
q30 8 60 13t60 7.5t60 2.5q89 0 125 -48.5t36 -166.5v-123q0 -45 5.5 -78.5t9.5 -52.5l-33 30l98 -11l-6 -52h-125l-20 113l18 3q-2 -28 -26.5 -57.5t-63 -49t-83.5 -19.5zM95 677l37 12q17 -33 43.5 -49.5t54.5 -16.5q29 0 55.5 16.5t42.5 49.5l36 -12q-13 -58 -51.5 -87.5
t-82.5 -29.5t-83 29.5t-52 87.5zM247 -209q-28 0 -43 17t-15 45q0 29 15 46.5t43 17.5t43 -16.5t15 -47.5q0 -28 -14.5 -45t-43.5 -17z" />
    <glyph glyph-name="uni1EB1" unicode="&#x1eb1;" horiz-adv-x="517" 
d="M189 -10q-67 0 -106 34.5t-39 92.5q0 52 33.5 86.5t100.5 45.5l175 29v-49l-163 -31q-30 -5 -47 -23t-17 -44q0 -38 19.5 -59.5t55.5 -21.5q53 0 92.5 34t46.5 84v141q0 72 -24 107.5t-72 35.5q-21 0 -45 -4t-45 -11t-32 -15l31 43l-12 -75l1 -41l-58 -3l-10 133
q30 8 60 13t60 7.5t60 2.5q89 0 125 -48.5t36 -166.5v-123q0 -45 5.5 -78.5t9.5 -52.5l-33 30l98 -11l-6 -52h-125l-20 113l18 3q-2 -28 -26.5 -57.5t-63 -49t-83.5 -19.5zM237 543q-43 0 -82.5 23.5t-52.5 72.5l37 12q15 -28 42.5 -42.5t55.5 -14.5q29 0 55.5 14.5
t42.5 42.5l36 -12q-7 -32 -28 -53.5t-49 -32t-57 -10.5zM278 638l-192 96l43 51l176 -114z" />
    <glyph glyph-name="uni1EB3" unicode="&#x1eb3;" horiz-adv-x="517" 
d="M189 -10q-67 0 -106 34.5t-39 92.5q0 52 33.5 86.5t100.5 45.5l175 29v-49l-163 -31q-30 -5 -47 -23t-17 -44q0 -38 19.5 -59.5t55.5 -21.5q53 0 92.5 34t46.5 84v141q0 72 -24 107.5t-72 35.5q-21 0 -45 -4t-45 -11t-32 -15l31 43l-12 -75l1 -41l-58 -3l-10 133
q30 8 60 13t60 7.5t60 2.5q89 0 125 -48.5t36 -166.5v-123q0 -45 5.5 -78.5t9.5 -52.5l-33 30l98 -11l-6 -52h-125l-20 113l18 3q-2 -28 -26.5 -57.5t-63 -49t-83.5 -19.5zM230 543q-43 0 -82.5 23.5t-52.5 72.5l37 12q15 -28 42.5 -42.5t55.5 -14.5q29 0 55.5 14.5
t42.5 42.5l36 -12q-7 -32 -28 -53.5t-49 -32t-57 -10.5zM229 642q-31 0 -37 13t-6 21q0 15 10.5 23t24 14t24 13.5t10.5 19.5q0 9 -8.5 14.5t-27.5 5.5q-10 0 -22 -2.5t-22 -4.5l-16 39q4 2 25.5 7.5t47.5 5.5q32 0 60 -16t28 -48q0 -18 -10.5 -29.5t-25 -19t-25 -14
t-10.5 -15.5q0 -11 6 -21q-3 -2 -10 -4t-16 -2z" />
    <glyph glyph-name="uni1EB5" unicode="&#x1eb5;" horiz-adv-x="517" 
d="M189 -10q-67 0 -106 34.5t-39 92.5q0 52 33.5 86.5t100.5 45.5l175 29v-49l-163 -31q-30 -5 -47 -23t-17 -44q0 -38 19.5 -59.5t55.5 -21.5q53 0 92.5 34t46.5 84v141q0 72 -24 107.5t-72 35.5q-21 0 -45 -4t-45 -11t-32 -15l31 43l-12 -75l1 -41l-58 -3l-10 133
q30 8 60 13t60 7.5t60 2.5q89 0 125 -48.5t36 -166.5v-123q0 -45 5.5 -78.5t9.5 -52.5l-33 30l98 -11l-6 -52h-125l-20 113l18 3q-2 -28 -26.5 -57.5t-63 -49t-83.5 -19.5zM236 543q-43 0 -82.5 23.5t-52.5 72.5l37 12q15 -28 42.5 -42.5t55.5 -14.5q29 0 55.5 14.5
t42.5 42.5l36 -12q-7 -32 -28 -53.5t-49 -32t-57 -10.5zM114 662l-30 18q9 20 21.5 42t27 37t27.5 15q18 0 44.5 -10t53.5 -20t45 -10q15 0 29.5 16t22.5 32l29 -17q-1 -3 -8 -17.5t-17.5 -31t-23.5 -29t-26 -12.5q-18 0 -44.5 10l-53 20t-44.5 10q-15 0 -30 -18t-23 -35z
" />
    <glyph glyph-name="uni01CE" unicode="&#x1ce;" horiz-adv-x="517" 
d="M189 -10q-67 0 -106 34.5t-39 92.5q0 52 33.5 86.5t100.5 45.5l175 29v-49l-163 -31q-30 -5 -47 -23t-17 -44q0 -38 19.5 -59.5t55.5 -21.5q53 0 92.5 34t46.5 84v141q0 72 -24 107.5t-72 35.5q-21 0 -45 -4t-45 -11t-32 -15l31 43l-12 -75l1 -41l-58 -3l-10 133
q30 8 60 13t60 7.5t60 2.5q89 0 125 -48.5t36 -166.5v-123q0 -45 5.5 -78.5t9.5 -52.5l-33 30l98 -11l-6 -52h-125l-20 113l18 3q-2 -28 -26.5 -57.5t-63 -49t-83.5 -19.5zM91 701l176 -130l-37 -29h-34l-135 131zM355 701l30 -28l-134 -131h-35l-37 29z" />
    <glyph glyph-name="acircumflex" unicode="&#xe2;" horiz-adv-x="517" 
d="M189 -10q-67 0 -106 34.5t-39 92.5q0 52 33.5 86.5t100.5 45.5l175 29v-49l-163 -31q-30 -5 -47 -23t-17 -44q0 -38 19.5 -59.5t55.5 -21.5q53 0 92.5 34t46.5 84v141q0 72 -24 107.5t-72 35.5q-21 0 -45 -4t-45 -11t-32 -15l31 43l-12 -75l1 -41l-58 -3l-10 133
q30 8 60 13t60 7.5t60 2.5q89 0 125 -48.5t36 -166.5v-123q0 -45 5.5 -78.5t9.5 -52.5l-33 30l98 -11l-6 -52h-125l-20 113l18 3q-2 -28 -26.5 -57.5t-63 -49t-83.5 -19.5zM362 539l-176 130l37 29h34l135 -131zM98 539l-30 28l134 131h35l37 -29z" />
    <glyph glyph-name="uni1EA5" unicode="&#x1ea5;" horiz-adv-x="517" 
d="M189 -10q-67 0 -106 34.5t-39 92.5q0 52 33.5 86.5t100.5 45.5l175 29v-49l-163 -31q-30 -5 -47 -23t-17 -44q0 -38 19.5 -59.5t55.5 -21.5q53 0 92.5 34t46.5 84v141q0 72 -24 107.5t-72 35.5q-21 0 -45 -4t-45 -11t-32 -15l31 43l-12 -75l1 -41l-58 -3l-10 133
q30 8 60 13t60 7.5t60 2.5q89 0 125 -48.5t36 -166.5v-123q0 -45 5.5 -78.5t9.5 -52.5l-33 30l98 -11l-6 -52h-125l-20 113l18 3q-2 -28 -26.5 -57.5t-63 -49t-83.5 -19.5zM361 527l-175 100l36 32h35l135 -102zM98 527l-30 30l134 102h35l37 -32zM157 659l-24 35l186 98
l38 -55z" />
    <glyph glyph-name="uni1EAD" unicode="&#x1ead;" horiz-adv-x="517" 
d="M189 -10q-67 0 -106 34.5t-39 92.5q0 52 33.5 86.5t100.5 45.5l175 29v-49l-163 -31q-30 -5 -47 -23t-17 -44q0 -38 19.5 -59.5t55.5 -21.5q53 0 92.5 34t46.5 84v141q0 72 -24 107.5t-72 35.5q-21 0 -45 -4t-45 -11t-32 -15l31 43l-12 -75l1 -41l-58 -3l-10 133
q30 8 60 13t60 7.5t60 2.5q89 0 125 -48.5t36 -166.5v-123q0 -45 5.5 -78.5t9.5 -52.5l-33 30l98 -11l-6 -52h-125l-20 113l18 3q-2 -28 -26.5 -57.5t-63 -49t-83.5 -19.5zM362 539l-176 130l37 29h34l135 -131zM98 539l-30 28l134 131h35l37 -29zM247 -209q-28 0 -43 17
t-15 45q0 29 15 46.5t43 17.5t43 -16.5t15 -47.5q0 -28 -14.5 -45t-43.5 -17z" />
    <glyph glyph-name="uni1EA7" unicode="&#x1ea7;" horiz-adv-x="517" 
d="M189 -10q-67 0 -106 34.5t-39 92.5q0 52 33.5 86.5t100.5 45.5l175 29v-49l-163 -31q-30 -5 -47 -23t-17 -44q0 -38 19.5 -59.5t55.5 -21.5q53 0 92.5 34t46.5 84v141q0 72 -24 107.5t-72 35.5q-21 0 -45 -4t-45 -11t-32 -15l31 43l-12 -75l1 -41l-58 -3l-10 133
q30 8 60 13t60 7.5t60 2.5q89 0 125 -48.5t36 -166.5v-123q0 -45 5.5 -78.5t9.5 -52.5l-33 30l98 -11l-6 -52h-125l-20 113l18 3q-2 -28 -26.5 -57.5t-63 -49t-83.5 -19.5zM361 527l-175 100l36 32h35l135 -102zM98 527l-30 30l134 102h35l37 -32zM305 671l-192 96l43 51
l176 -114z" />
    <glyph glyph-name="uni1EA9" unicode="&#x1ea9;" horiz-adv-x="517" 
d="M189 -10q-67 0 -106 34.5t-39 92.5q0 52 33.5 86.5t100.5 45.5l175 29v-49l-163 -31q-30 -5 -47 -23t-17 -44q0 -38 19.5 -59.5t55.5 -21.5q53 0 92.5 34t46.5 84v141q0 72 -24 107.5t-72 35.5q-21 0 -45 -4t-45 -11t-32 -15l31 43l-12 -75l1 -41l-58 -3l-10 133
q30 8 60 13t60 7.5t60 2.5q89 0 125 -48.5t36 -166.5v-123q0 -45 5.5 -78.5t9.5 -52.5l-33 30l98 -11l-6 -52h-125l-20 113l18 3q-2 -28 -26.5 -57.5t-63 -49t-83.5 -19.5zM361 527l-175 100l36 32h35l135 -102zM98 527l-30 30l134 102h35l37 -32zM231 678q-31 0 -37 13
t-6 21q0 15 10.5 23t24 14t24 13.5t10.5 19.5q0 9 -8.5 14.5t-27.5 5.5q-10 0 -22 -2.5t-22 -4.5l-16 39q4 2 25.5 7.5t47.5 5.5q32 0 60 -16t28 -48q0 -18 -10.5 -29.5t-25 -19t-25 -14t-10.5 -15.5q0 -11 6 -21q-3 -2 -10 -4t-16 -2z" />
    <glyph glyph-name="uni1EAB" unicode="&#x1eab;" horiz-adv-x="517" 
d="M189 -10q-67 0 -106 34.5t-39 92.5q0 52 33.5 86.5t100.5 45.5l175 29v-49l-163 -31q-30 -5 -47 -23t-17 -44q0 -38 19.5 -59.5t55.5 -21.5q53 0 92.5 34t46.5 84v141q0 72 -24 107.5t-72 35.5q-21 0 -45 -4t-45 -11t-32 -15l31 43l-12 -75l1 -41l-58 -3l-10 133
q30 8 60 13t60 7.5t60 2.5q89 0 125 -48.5t36 -166.5v-123q0 -45 5.5 -78.5t9.5 -52.5l-33 30l98 -11l-6 -52h-125l-20 113l18 3q-2 -28 -26.5 -57.5t-63 -49t-83.5 -19.5zM361 527l-175 100l36 32h35l135 -102zM98 527l-30 30l134 102h35l37 -32zM103 661l-30 18
q9 20 21.5 42t27 37t27.5 15q18 0 44.5 -10t53.5 -20t45 -10q15 0 29.5 16t22.5 32l29 -17q-1 -3 -8 -17.5t-17.5 -31t-23.5 -29t-26 -12.5q-18 0 -44.5 10l-53 20t-44.5 10q-15 0 -30 -18t-23 -35z" />
    <glyph glyph-name="uni0201" unicode="&#x201;" horiz-adv-x="517" 
d="M189 -10q-67 0 -106 34.5t-39 92.5q0 52 33.5 86.5t100.5 45.5l175 29v-49l-163 -31q-30 -5 -47 -23t-17 -44q0 -38 19.5 -59.5t55.5 -21.5q53 0 92.5 34t46.5 84v141q0 72 -24 107.5t-72 35.5q-21 0 -45 -4t-45 -11t-32 -15l31 43l-12 -75l1 -41l-58 -3l-10 133
q30 8 60 13t60 7.5t60 2.5q89 0 125 -48.5t36 -166.5v-123q0 -45 5.5 -78.5t9.5 -52.5l-33 30l98 -11l-6 -52h-125l-20 113l18 3q-2 -28 -26.5 -57.5t-63 -49t-83.5 -19.5zM177 560l-171 110l43 54l159 -129zM305 561l-148 123l50 48l133 -141z" />
    <glyph glyph-name="adieresis" unicode="&#xe4;" horiz-adv-x="517" 
d="M189 -10q-67 0 -106 34.5t-39 92.5q0 52 33.5 86.5t100.5 45.5l175 29v-49l-163 -31q-30 -5 -47 -23t-17 -44q0 -38 19.5 -59.5t55.5 -21.5q53 0 92.5 34t46.5 84v141q0 72 -24 107.5t-72 35.5q-21 0 -45 -4t-45 -11t-32 -15l31 43l-12 -75l1 -41l-58 -3l-10 133
q30 8 60 13t60 7.5t60 2.5q89 0 125 -48.5t36 -166.5v-123q0 -45 5.5 -78.5t9.5 -52.5l-33 30l98 -11l-6 -52h-125l-20 113l18 3q-2 -28 -26.5 -57.5t-63 -49t-83.5 -19.5zM320 564q-26 0 -40.5 15t-14.5 42q0 25 15 40t40 15t39.5 -14t14.5 -41t-14 -42t-40 -15zM139 564
q-26 0 -40.5 15t-14.5 42q0 25 15 40t40 15q24 0 39 -14t15 -41t-14.5 -42t-39.5 -15z" />
    <glyph glyph-name="uni01DF" unicode="&#x1df;" horiz-adv-x="517" 
d="M189 -10q-67 0 -106 34.5t-39 92.5q0 52 33.5 86.5t100.5 45.5l175 29v-49l-163 -31q-30 -5 -47 -23t-17 -44q0 -38 19.5 -59.5t55.5 -21.5q53 0 92.5 34t46.5 84v141q0 72 -24 107.5t-72 35.5q-21 0 -45 -4t-45 -11t-32 -15l31 43l-12 -75l1 -41l-58 -3l-10 133
q30 8 60 13t60 7.5t60 2.5q89 0 125 -48.5t36 -166.5v-123q0 -45 5.5 -78.5t9.5 -52.5l-33 30l98 -11l-6 -52h-125l-20 113l18 3q-2 -28 -26.5 -57.5t-63 -49t-83.5 -19.5zM318 543q-23 0 -35.5 15.5t-12.5 38.5q0 25 12.5 40.5t35.5 15.5t35.5 -14.5t12.5 -41.5
q0 -24 -12.5 -39t-35.5 -15zM141 543q-23 0 -36 15t-13 39q0 26 13 41t36 15t35 -14.5t12 -41.5q0 -23 -12 -38.5t-35 -15.5zM80 690v54h300l-5 -54h-295z" />
    <glyph glyph-name="uni1EA1" unicode="&#x1ea1;" horiz-adv-x="517" 
d="M189 -10q-67 0 -106 34.5t-39 92.5q0 52 33.5 86.5t100.5 45.5l175 29v-49l-163 -31q-30 -5 -47 -23t-17 -44q0 -38 19.5 -59.5t55.5 -21.5q53 0 92.5 34t46.5 84v141q0 72 -24 107.5t-72 35.5q-21 0 -45 -4t-45 -11t-32 -15l31 43l-12 -75l1 -41l-58 -3l-10 133
q30 8 60 13t60 7.5t60 2.5q89 0 125 -48.5t36 -166.5v-123q0 -45 5.5 -78.5t9.5 -52.5l-33 30l98 -11l-6 -52h-125l-20 113l18 3q-2 -28 -26.5 -57.5t-63 -49t-83.5 -19.5zM247 -209q-28 0 -43 17t-15 45q0 29 15 46.5t43 17.5t43 -16.5t15 -47.5q0 -28 -14.5 -45t-43.5 -17
z" />
    <glyph glyph-name="agrave" unicode="&#xe0;" horiz-adv-x="517" 
d="M189 -10q-67 0 -106 34.5t-39 92.5q0 52 33.5 86.5t100.5 45.5l175 29v-49l-163 -31q-30 -5 -47 -23t-17 -44q0 -38 19.5 -59.5t55.5 -21.5q53 0 92.5 34t46.5 84v141q0 72 -24 107.5t-72 35.5q-21 0 -45 -4t-45 -11t-32 -15l31 43l-12 -75l1 -41l-58 -3l-10 133
q30 8 60 13t60 7.5t60 2.5q89 0 125 -48.5t36 -166.5v-123q0 -45 5.5 -78.5t9.5 -52.5l-33 30l98 -11l-6 -52h-125l-20 113l18 3q-2 -28 -26.5 -57.5t-63 -49t-83.5 -19.5zM279 542l-174 150l55 47l157 -165z" />
    <glyph glyph-name="uni1EA3" unicode="&#x1ea3;" horiz-adv-x="517" 
d="M189 -10q-67 0 -106 34.5t-39 92.5q0 52 33.5 86.5t100.5 45.5l175 29v-49l-163 -31q-30 -5 -47 -23t-17 -44q0 -38 19.5 -59.5t55.5 -21.5q53 0 92.5 34t46.5 84v141q0 72 -24 107.5t-72 35.5q-21 0 -45 -4t-45 -11t-32 -15l31 43l-12 -75l1 -41l-58 -3l-10 133
q30 8 60 13t60 7.5t60 2.5q89 0 125 -48.5t36 -166.5v-123q0 -45 5.5 -78.5t9.5 -52.5l-33 30l98 -11l-6 -52h-125l-20 113l18 3q-2 -28 -26.5 -57.5t-63 -49t-83.5 -19.5zM220 549q-20 0 -29.5 7.5t-11.5 16.5t-2 13q0 16 10.5 25.5t24 16.5t24 15t10.5 22q0 9 -8.5 15.5
t-27.5 6.5q-9 0 -21 -2.5t-23 -5.5l-16 42q4 2 24.5 7.5t48.5 5.5q32 0 60 -17t28 -52q0 -20 -10.5 -33t-25 -21.5t-25 -16t-10.5 -16.5q0 -11 6 -23q-4 -2 -11 -4t-15 -2z" />
    <glyph glyph-name="uni0203" unicode="&#x203;" horiz-adv-x="517" 
d="M189 -10q-67 0 -106 34.5t-39 92.5q0 52 33.5 86.5t100.5 45.5l175 29v-49l-163 -31q-30 -5 -47 -23t-17 -44q0 -38 19.5 -59.5t55.5 -21.5q53 0 92.5 34t46.5 84v141q0 72 -24 107.5t-72 35.5q-21 0 -45 -4t-45 -11t-32 -15l31 43l-12 -75l1 -41l-58 -3l-10 133
q30 8 60 13t60 7.5t60 2.5q89 0 125 -48.5t36 -166.5v-123q0 -45 5.5 -78.5t9.5 -52.5l-33 30l98 -11l-6 -52h-125l-20 113l18 3q-2 -28 -26.5 -57.5t-63 -49t-83.5 -19.5zM365 559l-37 -12q-16 33 -42.5 49.5t-55.5 16.5q-28 0 -54.5 -16.5t-43.5 -49.5l-36 12q13 59 52 88
t82 29q44 0 83 -29t52 -88z" />
    <glyph glyph-name="amacron" unicode="&#x101;" horiz-adv-x="517" 
d="M189 -10q-67 0 -106 34.5t-39 92.5q0 52 33.5 86.5t100.5 45.5l175 29v-49l-163 -31q-30 -5 -47 -23t-17 -44q0 -38 19.5 -59.5t55.5 -21.5q53 0 92.5 34t46.5 84v141q0 72 -24 107.5t-72 35.5q-21 0 -45 -4t-45 -11t-32 -15l31 43l-12 -75l1 -41l-58 -3l-10 133
q30 8 60 13t60 7.5t60 2.5q89 0 125 -48.5t36 -166.5v-123q0 -45 5.5 -78.5t9.5 -52.5l-33 30l98 -11l-6 -52h-125l-20 113l18 3q-2 -28 -26.5 -57.5t-63 -49t-83.5 -19.5zM80 569v54h300l-5 -54h-295z" />
    <glyph glyph-name="aogonek" unicode="&#x105;" horiz-adv-x="518" 
d="M189 -10q-67 0 -106 34.5t-39 92.5q0 110 134 132l162 28v33q0 72 -24 107.5t-72 35.5q-25 0 -51 -5.5t-45 -14.5l-7 -43l-1 -40l-56 -3l-10 132q30 8 60 13.5t60 8t60 2.5q89 0 125 -48.5t36 -166.5v-124q0 -25 2.5 -49t5 -40l2.5 -16l70 -7l-6 -52h-16h-44.5h-65.5
l-13 80q-13 -25 -38.5 -45.5t-57.5 -32.5t-65 -12zM201 50q53 0 92.5 34t46.5 84v59l-150 -29q-30 -5 -47 -23t-17 -44q0 -38 19.5 -59.5t55.5 -21.5zM387 -210q-25 0 -52 8t-45.5 28t-18.5 55q0 33 23.5 65.5t84.5 62.5l65 -9q-47 -19 -74 -53t-27 -62q0 -19 14.5 -32.5
t45.5 -13.5q8 0 17 1.5t17 3.5l11 -43q-13 -5 -29.5 -8t-31.5 -3z" />
    <glyph glyph-name="aring" unicode="&#xe5;" horiz-adv-x="517" 
d="M189 -10q-67 0 -106 34.5t-39 92.5q0 52 33.5 86.5t100.5 45.5l175 29v-49l-163 -31q-30 -5 -47 -23t-17 -44q0 -38 19.5 -59.5t55.5 -21.5q53 0 92.5 34t46.5 84v141q0 72 -24 107.5t-72 35.5q-21 0 -45 -4t-45 -11t-32 -15l31 43l-12 -75l1 -41l-58 -3l-10 133
q30 8 60 13t60 7.5t60 2.5q89 0 125 -48.5t36 -166.5v-123q0 -45 5.5 -78.5t9.5 -52.5l-33 30l98 -11l-6 -52h-125l-20 113l18 3q-2 -28 -26.5 -57.5t-63 -49t-83.5 -19.5zM230 545q-45 0 -67.5 23.5t-22.5 60.5q0 39 22.5 62.5t67.5 23.5t66.5 -23.5t21.5 -62.5
q0 -37 -21.5 -60.5t-66.5 -23.5zM230 581q24 0 34 14.5t10 33.5q0 20 -10 34.5t-34 14.5q-22 0 -32.5 -14.5t-10.5 -34.5q0 -19 10.5 -33.5t32.5 -14.5z" />
    <glyph glyph-name="aringacute" unicode="&#x1fb;" horiz-adv-x="517" 
d="M189 -10q-67 0 -106 34.5t-39 92.5q0 52 33.5 86.5t100.5 45.5l175 29v-49l-163 -31q-30 -5 -47 -23t-17 -44q0 -38 19.5 -59.5t55.5 -21.5q53 0 92.5 34t46.5 84v141q0 72 -24 107.5t-72 35.5q-21 0 -45 -4t-45 -11t-32 -15l31 43l-12 -75l1 -41l-58 -3l-10 133
q30 8 60 13t60 7.5t60 2.5q89 0 125 -48.5t36 -166.5v-123q0 -45 5.5 -78.5t9.5 -52.5l-33 30l98 -11l-6 -52h-125l-20 113l18 3q-2 -28 -26.5 -57.5t-63 -49t-83.5 -19.5zM228 547q-42 0 -64 22t-22 58q0 38 22 60.5t64 22.5q43 0 64 -22.5t21 -60.5q0 -36 -21 -58t-64 -22
zM228 584q21 0 31 13t10 30q0 19 -9 32.5t-32 13.5q-20 0 -30 -13t-10 -33q0 -17 10 -30t30 -13zM166 711l-24 35l186 98l38 -55z" />
    <glyph glyph-name="atilde" unicode="&#xe3;" horiz-adv-x="517" 
d="M189 -10q-67 0 -106 34.5t-39 92.5q0 52 33.5 86.5t100.5 45.5l175 29v-49l-163 -31q-30 -5 -47 -23t-17 -44q0 -38 19.5 -59.5t55.5 -21.5q53 0 92.5 34t46.5 84v141q0 72 -24 107.5t-72 35.5q-21 0 -45 -4t-45 -11t-32 -15l31 43l-12 -75l1 -41l-58 -3l-10 133
q30 8 60 13t60 7.5t60 2.5q89 0 125 -48.5t36 -166.5v-123q0 -45 5.5 -78.5t9.5 -52.5l-33 30l98 -11l-6 -52h-125l-20 113l18 3q-2 -28 -26.5 -57.5t-63 -49t-83.5 -19.5zM94 560l-35 21q9 22 22.5 45t29 39t29.5 16q20 0 49 -10t57.5 -20.5t48.5 -10.5q15 0 30 17.5
t23 33.5l35 -21l-9.5 -19t-19.5 -33.5t-26 -32t-28 -13.5q-19 0 -47.5 10.5t-57 20.5t-48.5 10q-15 0 -30 -18t-23 -35z" />
    <glyph glyph-name="ae" unicode="&#xe6;" horiz-adv-x="772" 
d="M188 -10q-67 0 -105.5 36t-38.5 96q0 103 113 123l196 33v-49l-163 -30q-34 -7 -49 -24t-15 -49q0 -36 19.5 -56t55.5 -20q39 0 70.5 22.5t50 60.5t18.5 85v92q0 142 -96 142q-22 0 -43 -3t-37.5 -9.5t-27.5 -15.5l21 42l-17 -81v-34l-56 -3l-10 131q44 12 89 18t91 6
q117 0 145 -89l-22 3q62 85 165 85q88 0 134.5 -47t53.5 -142l-14 -38l-315 -37l2 48l277 41l-33 -39v35q0 62 -28.5 96t-79.5 34q-56 0 -89 -48t-35 -134l-1 -16q-1 -59 18 -105t53 -72t77 -26q44 0 82.5 14.5t57.5 27.5l28 -45q2 2 -10.5 -6.5t-36 -21t-56.5 -22t-72 -9.5
q-72 0 -122.5 37t-71.5 105l20 1q-34 -70 -83 -106.5t-110 -36.5z" />
    <glyph glyph-name="aeacute" unicode="&#x1fd;" horiz-adv-x="772" 
d="M188 -10q-67 0 -105.5 36t-38.5 96q0 103 113 123l196 33v-49l-163 -30q-34 -7 -49 -24t-15 -49q0 -36 19.5 -56t55.5 -20q39 0 70.5 22.5t50 60.5t18.5 85v92q0 142 -96 142q-22 0 -43 -3t-37.5 -9.5t-27.5 -15.5l21 42l-17 -81v-34l-56 -3l-10 131q44 12 89 18t91 6
q117 0 145 -89l-22 3q62 85 165 85q88 0 134.5 -47t53.5 -142l-14 -38l-315 -37l2 48l277 41l-33 -39v35q0 62 -28.5 96t-79.5 34q-56 0 -89 -48t-35 -134l-1 -16q-1 -59 18 -105t53 -72t77 -26q44 0 82.5 14.5t57.5 27.5l28 -45q2 2 -10.5 -6.5t-36 -21t-56.5 -22t-72 -9.5
q-72 0 -122.5 37t-71.5 105l20 1q-34 -70 -83 -106.5t-110 -36.5zM348 543l-38 32l157 165l55 -47z" />
    <glyph glyph-name="b" unicode="b" horiz-adv-x="538" 
d="M264 -10q-63 0 -112 12t-80 24q2 19 3.5 41.5t2.5 41t1 25.5v484q0 11 -2.5 30t-6 38t-5.5 30l38 -31l-110 24l5 50l89 -3h55l19 -18q-1 -21 -3 -49t-3 -55t-1 -46v-195l-8 18q10 21 29.5 42t49 35t68.5 14q67 0 111 -32.5t66 -88.5t22 -125q0 -70 -27.5 -131t-78.5 -98
t-122 -37zM167 28l-23 31q23 -7 52 -12t63 -5q55 0 87.5 30t46.5 78.5t14 104.5q0 51 -11 94.5t-38 70.5t-76 27q-43 0 -71.5 -25.5t-42.5 -65t-14 -81.5v-111q0 -27 2 -55t5 -49.5t6 -31.5z" />
    <glyph glyph-name="c" unicode="c" horiz-adv-x="481" 
d="M274 -10q-76 0 -126.5 32.5t-75.5 90.5t-25 133q0 76 25.5 133.5t76.5 90t127 32.5q44 0 77 -10t78 -26l-10 -119l-55 3v34q0 8 -5.5 26.5t-10.5 34.5l31 -32q-27 14 -53.5 24.5t-52.5 10.5q-51 0 -81.5 -30.5t-44.5 -76.5t-14 -95t13.5 -93.5t43.5 -72.5t81 -28
q37 0 71.5 10t70.5 27l27 -46q-42 -28 -83 -40.5t-85 -12.5z" />
    <glyph glyph-name="cacute" unicode="&#x107;" horiz-adv-x="481" 
d="M274 -10q-76 0 -126.5 32.5t-75.5 90.5t-25 133q0 76 25.5 133.5t76.5 90t127 32.5q44 0 77 -10t78 -26l-10 -119l-55 3v34q0 8 -5.5 26.5t-10.5 34.5l31 -32q-27 14 -53.5 24.5t-52.5 10.5q-51 0 -81.5 -30.5t-44.5 -76.5t-14 -95t13.5 -93.5t43.5 -72.5t81 -28
q37 0 71.5 10t70.5 27l27 -46q-42 -28 -83 -40.5t-85 -12.5zM241 543l-38 32l157 165l55 -47z" />
    <glyph glyph-name="ccaron" unicode="&#x10d;" horiz-adv-x="481" 
d="M274 -10q-76 0 -126.5 32.5t-75.5 90.5t-25 133q0 76 25.5 133.5t76.5 90t127 32.5q44 0 77 -10t78 -26l-10 -119l-55 3v34q0 8 -5.5 26.5t-10.5 34.5l31 -32q-27 14 -53.5 24.5t-52.5 10.5q-51 0 -81.5 -30.5t-44.5 -76.5t-14 -95t13.5 -93.5t43.5 -72.5t81 -28
q37 0 71.5 10t70.5 27l27 -46q-42 -28 -83 -40.5t-85 -12.5zM140 701l176 -130l-37 -29h-34l-135 131zM404 701l30 -28l-134 -131h-35l-37 29z" />
    <glyph glyph-name="ccedilla" unicode="&#xe7;" horiz-adv-x="481" 
d="M274 -10q-76 0 -126.5 32.5t-75.5 90.5t-25 133q0 76 25.5 133.5t76.5 90t127 32.5q44 0 77 -10t78 -26l-10 -119l-55 3v34q0 8 -5.5 26.5t-10.5 34.5l31 -32q-27 14 -53.5 24.5t-52.5 10.5q-51 0 -81.5 -30.5t-44.5 -76.5t-14 -95t13.5 -93.5t43.5 -72.5t81 -28
q37 0 71.5 10t70.5 27l27 -46q-42 -28 -83 -40.5t-85 -12.5zM187 -247l-7 35q41 2 70.5 20t27.5 41q-1 14 -16.5 23t-45.5 10l-9 6l27 129h42l-37 -114l-14 41q60 -10 83 -36.5t23 -53.5q0 -17 -10 -37.5t-30 -36.5q-18 -13 -43.5 -20t-60.5 -7z" />
    <glyph glyph-name="uni1E09" unicode="&#x1e09;" horiz-adv-x="481" 
d="M274 -10q-76 0 -126.5 32.5t-75.5 90.5t-25 133q0 76 25.5 133.5t76.5 90t127 32.5q44 0 77 -10t78 -26l-10 -119l-55 3v34q0 8 -5.5 26.5t-10.5 34.5l31 -32q-27 14 -53.5 24.5t-52.5 10.5q-51 0 -81.5 -30.5t-44.5 -76.5t-14 -95t13.5 -93.5t43.5 -72.5t81 -28
q37 0 71.5 10t70.5 27l27 -46q-42 -28 -83 -40.5t-85 -12.5zM187 -247l-7 35q41 2 70.5 20t27.5 41q-1 14 -16.5 23t-45.5 10l-9 6l27 129h42l-37 -114l-14 41q60 -10 83 -36.5t23 -53.5q0 -17 -10 -37.5t-30 -36.5q-18 -13 -43.5 -20t-60.5 -7zM241 543l-38 32l157 165
l55 -47z" />
    <glyph glyph-name="ccircumflex" unicode="&#x109;" horiz-adv-x="481" 
d="M274 -10q-76 0 -126.5 32.5t-75.5 90.5t-25 133q0 76 25.5 133.5t76.5 90t127 32.5q44 0 77 -10t78 -26l-10 -119l-55 3v34q0 8 -5.5 26.5t-10.5 34.5l31 -32q-27 14 -53.5 24.5t-52.5 10.5q-51 0 -81.5 -30.5t-44.5 -76.5t-14 -95t13.5 -93.5t43.5 -72.5t81 -28
q37 0 71.5 10t70.5 27l27 -46q-42 -28 -83 -40.5t-85 -12.5zM411 539l-176 130l37 29h34l135 -131zM147 539l-30 28l134 131h35l37 -29z" />
    <glyph glyph-name="cdotaccent" unicode="&#x10b;" horiz-adv-x="481" 
d="M274 -10q-76 0 -126.5 32.5t-75.5 90.5t-25 133q0 76 25.5 133.5t76.5 90t127 32.5q44 0 77 -10t78 -26l-10 -119l-55 3v34q0 8 -5.5 26.5t-10.5 34.5l31 -32q-27 14 -53.5 24.5t-52.5 10.5q-51 0 -81.5 -30.5t-44.5 -76.5t-14 -95t13.5 -93.5t43.5 -72.5t81 -28
q37 0 71.5 10t70.5 27l27 -46q-42 -28 -83 -40.5t-85 -12.5zM279 561q-28 0 -43 17t-15 45q0 29 15 46.5t43 17.5t43 -16.5t15 -47.5q0 -28 -14.5 -45t-43.5 -17z" />
    <glyph glyph-name="d" unicode="d" horiz-adv-x="561" 
d="M250 -10q-93 0 -147.5 69t-54.5 189q0 117 55.5 185.5t149.5 68.5q25 0 46 -2.5t46 -10t60 -22.5l-7 -72q-35 28 -67.5 39.5t-67.5 11.5q-61 0 -96.5 -53.5t-35.5 -147.5q0 -91 33 -144t88 -53q62 0 97 41t35 114v416q0 13 -3 34t-7 40.5t-6 27.5l38 -33l-122 21l5 50
l102 -3h56l18 -18q-1 -21 -2.5 -49t-2.5 -55t-1 -45v-426q0 -39 6 -79t10 -57l-39 36l103 -11l-6 -52h-125l-20 113l7 -17q1 -17 -13 -35.5t-37 -34.5t-48 -26t-47 -10z" />
    <glyph glyph-name="eth" unicode="&#xf0;" horiz-adv-x="557" 
d="M273 -10q-71 0 -122.5 31.5t-78.5 87t-27 126.5q0 72 27 128t76 88t114 32q21 0 38.5 -5t30.5 -10l-7 -43q-10 2 -26.5 3t-28.5 1q-47 0 -77 -27.5t-44 -71.5t-14 -94t13.5 -94t44.5 -71t81 -27q53 0 83.5 29t44 75.5t13.5 99.5q0 110 -23.5 201t-77 161t-142.5 115
l18 40q100 -38 169.5 -116t106 -180.5t36.5 -216.5q0 -77 -25.5 -136.5t-76 -92.5t-126.5 -33zM184 544l-22 40l129 67l27 -37zM354 631l-30 37l125 65l22 -42z" />
    <glyph glyph-name="dcaron" unicode="&#x10f;" horiz-adv-x="561" 
d="M250 -10q-93 0 -147.5 69t-54.5 189q0 117 55.5 185.5t149.5 68.5q25 0 46 -2.5t46 -10t60 -22.5l-7 -72q-35 28 -67.5 39.5t-67.5 11.5q-61 0 -96.5 -53.5t-35.5 -147.5q0 -91 33 -144t88 -53q62 0 97 41t35 114v416q0 13 -3 34t-7 40.5t-6 27.5l38 -33l-122 21l5 50
l102 -3h56l18 -18q-1 -21 -2.5 -49t-2.5 -55t-1 -45v-426q0 -39 6 -79t10 -57l-39 36l103 -11l-6 -52h-125l-20 113l7 -17q1 -17 -13 -35.5t-37 -34.5t-48 -26t-47 -10zM571 513l-44 3l42 240h75z" />
    <glyph glyph-name="dcroat" unicode="&#x111;" horiz-adv-x="561" 
d="M250 -10q-93 0 -147.5 69t-54.5 189q0 117 55.5 185.5t149.5 68.5q25 0 46 -2.5t46 -10t60 -22.5l-7 -72q-35 28 -67.5 39.5t-67.5 11.5q-61 0 -96.5 -53.5t-35.5 -147.5q0 -91 33 -144t88 -53q62 0 97 41t35 114v416q0 13 -3 34t-7 40.5t-6 27.5l38 -33l-122 21l5 50
l102 -3h56l18 -18q-1 -21 -2.5 -49t-2.5 -55t-1 -45v-426q0 -39 6 -79t10 -57l-39 36l103 -11l-6 -52h-125l-20 113l7 -17q1 -17 -13 -35.5t-37 -34.5t-48 -26t-47 -10zM232 589v42h311l-4 -42h-307z" />
    <glyph glyph-name="uni1E0D" unicode="&#x1e0d;" horiz-adv-x="561" 
d="M250 -10q-93 0 -147.5 69t-54.5 189q0 117 55.5 185.5t149.5 68.5q25 0 46 -2.5t46 -10t60 -22.5l-7 -72q-35 28 -67.5 39.5t-67.5 11.5q-61 0 -96.5 -53.5t-35.5 -147.5q0 -91 33 -144t88 -53q62 0 97 41t35 114v416q0 13 -3 34t-7 40.5t-6 27.5l38 -33l-122 21l5 50
l102 -3h56l18 -18q-1 -21 -2.5 -49t-2.5 -55t-1 -45v-426q0 -39 6 -79t10 -57l-39 36l103 -11l-6 -52h-125l-20 113l7 -17q1 -17 -13 -35.5t-37 -34.5t-48 -26t-47 -10zM279 -209q-28 0 -43 17t-15 45q0 29 15 46.5t43 17.5t43 -16.5t15 -47.5q0 -28 -14.5 -45t-43.5 -17z
" />
    <glyph glyph-name="uni1E0F" unicode="&#x1e0f;" horiz-adv-x="561" 
d="M250 -10q-93 0 -147.5 69t-54.5 189q0 117 55.5 185.5t149.5 68.5q25 0 46 -2.5t46 -10t60 -22.5l-7 -72q-35 28 -67.5 39.5t-67.5 11.5q-61 0 -96.5 -53.5t-35.5 -147.5q0 -91 33 -144t88 -53q62 0 97 41t35 114v416q0 13 -3 34t-7 40.5t-6 27.5l38 -33l-122 21l5 50
l102 -3h56l18 -18q-1 -21 -2.5 -49t-2.5 -55t-1 -45v-426q0 -39 6 -79t10 -57l-39 36l103 -11l-6 -52h-125l-20 113l7 -17q1 -17 -13 -35.5t-37 -34.5t-48 -26t-47 -10zM135 -105v42h287l-4 -42h-283z" />
    <glyph glyph-name="uni01F3" unicode="&#x1f3;" horiz-adv-x="1034" 
d="M250 -10q-93 0 -147.5 69t-54.5 189q0 117 55.5 185.5t149.5 68.5q25 0 46 -2.5t46 -10t60 -22.5l-7 -72q-35 28 -67.5 39.5t-67.5 11.5q-61 0 -96.5 -53.5t-35.5 -147.5q0 -91 33 -144t88 -53q62 0 97 41t35 114v416q0 13 -3 34t-7 40.5t-6 27.5l38 -33l-122 21l5 50
l102 -3h56l18 -18q-1 -21 -2.5 -49t-2.5 -55t-1 -45v-426q0 -39 6 -79t10 -57l-39 36l103 -11l-6 -52h-125l-20 113l7 -17q1 -17 -13 -35.5t-37 -34.5t-48 -26t-47 -10zM963 -3q1 0 -13 0.5t-34.5 1t-38.5 1t-26 0.5h-238l-6 57q18 19 38 42t36.5 42t21.5 27l124 184
q7 10 18.5 31t25 46t24.5 45l17 -29h-160q-8 0 -22.5 -1.5t-31 -3.5t-31.5 -4l46 35q-7 -16 -15.5 -35.5t-15 -36.5t-7.5 -24l-4 -37l-56 4l5 136l18 19q24 -1 51.5 -2t43.5 -1h238l7 -57l-87 -110l-122 -185q-11 -17 -23 -37.5t-23.5 -42t-22.5 -42.5l-16 29h162q6 0 22 2
t35 4t34 3l-46 -34q7 14 14.5 31t13.5 31.5t8 20.5l5 39l57 -6l-8 -124z" />
    <glyph glyph-name="uni01C6" unicode="&#x1c6;" horiz-adv-x="1035" 
d="M250 -10q-93 0 -147.5 69t-54.5 189q0 117 55.5 185.5t149.5 68.5q25 0 46 -2.5t46 -10t60 -22.5l-7 -72q-35 28 -67.5 39.5t-67.5 11.5q-61 0 -96.5 -53.5t-35.5 -147.5q0 -91 33 -144t88 -53q62 0 97 41t35 114v416q0 13 -3 34t-7 40.5t-6 27.5l38 -33l-122 21l5 50
l102 -3h56l18 -18q-1 -21 -2.5 -49t-2.5 -55t-1 -45v-426q0 -39 6 -79t10 -57l-39 36l103 -11l-6 -52h-125l-20 113l7 -17q1 -17 -13 -35.5t-37 -34.5t-48 -26t-47 -10zM963 -3q1 0 -13 0.5t-34.5 1t-38.5 1t-26 0.5h-238l-6 57q18 19 38 42t36.5 42t21.5 27l124 184
q7 10 18.5 31t25 46t24.5 45l17 -29h-160q-8 0 -22.5 -1.5t-31 -3.5t-31.5 -4l46 35q-7 -16 -15.5 -35.5t-15 -36.5t-7.5 -24l-4 -37l-56 4l5 136l18 19q24 -1 51.5 -2t43.5 -1h238l7 -57l-87 -110l-122 -185q-11 -17 -23 -37.5t-23.5 -42t-22.5 -42.5l-16 29h162q6 0 22 2
t35 4t34 3l-46 -34q7 14 14.5 31t13.5 31.5t8 20.5l5 39l57 -6l-8 -124zM659 701l176 -130l-37 -29h-34l-135 131zM923 701l30 -28l-134 -131h-35l-37 29z" />
    <glyph glyph-name="e" unicode="e" horiz-adv-x="498" 
d="M275 -10q-75 0 -126 33t-76.5 91t-25.5 131q0 74 23 132t71 91.5t121 33.5q70 0 111 -29t59.5 -81t18.5 -120l-16 -32h-324v45l289 22l-32 -35q0 13 0.5 25.5t0.5 27.5q0 53 -27 91t-83 38q-37 0 -62 -18.5t-39 -49.5t-20 -66.5t-6 -70.5q0 -33 8 -67.5t25 -64.5
t42.5 -48t61.5 -18q47 0 89.5 14.5t64.5 27.5l26 -44q3 3 -7 -5.5t-32.5 -21t-56 -22.5t-78.5 -10z" />
    <glyph glyph-name="eacute" unicode="&#xe9;" horiz-adv-x="498" 
d="M275 -10q-75 0 -126 33t-76.5 91t-25.5 131q0 74 23 132t71 91.5t121 33.5q70 0 111 -29t59.5 -81t18.5 -120l-16 -32h-324v45l289 22l-32 -35q0 13 0.5 25.5t0.5 27.5q0 53 -27 91t-83 38q-37 0 -62 -18.5t-39 -49.5t-20 -66.5t-6 -70.5q0 -33 8 -67.5t25 -64.5
t42.5 -48t61.5 -18q47 0 89.5 14.5t64.5 27.5l26 -44q3 3 -7 -5.5t-32.5 -21t-56 -22.5t-78.5 -10zM228 543l-38 32l157 165l55 -47z" />
    <glyph glyph-name="ebreve" unicode="&#x115;" horiz-adv-x="498" 
d="M275 -10q-75 0 -126 33t-76.5 91t-25.5 131q0 74 23 132t71 91.5t121 33.5q70 0 111 -29t59.5 -81t18.5 -120l-16 -32h-324v45l289 22l-32 -35q0 13 0.5 25.5t0.5 27.5q0 53 -27 91t-83 38q-37 0 -62 -18.5t-39 -49.5t-20 -66.5t-6 -70.5q0 -33 8 -67.5t25 -64.5
t42.5 -48t61.5 -18q47 0 89.5 14.5t64.5 27.5l26 -44q3 3 -7 -5.5t-32.5 -21t-56 -22.5t-78.5 -10zM131 677l37 12q17 -33 43.5 -49.5t54.5 -16.5q29 0 55.5 16.5t42.5 49.5l36 -12q-13 -58 -51.5 -87.5t-82.5 -29.5t-83 29.5t-52 87.5z" />
    <glyph glyph-name="ecaron" unicode="&#x11b;" horiz-adv-x="498" 
d="M275 -10q-75 0 -126 33t-76.5 91t-25.5 131q0 74 23 132t71 91.5t121 33.5q70 0 111 -29t59.5 -81t18.5 -120l-16 -32h-324v45l289 22l-32 -35q0 13 0.5 25.5t0.5 27.5q0 53 -27 91t-83 38q-37 0 -62 -18.5t-39 -49.5t-20 -66.5t-6 -70.5q0 -33 8 -67.5t25 -64.5
t42.5 -48t61.5 -18q47 0 89.5 14.5t64.5 27.5l26 -44q3 3 -7 -5.5t-32.5 -21t-56 -22.5t-78.5 -10zM127 701l176 -130l-37 -29h-34l-135 131zM391 701l30 -28l-134 -131h-35l-37 29z" />
    </font>
</defs>
</svg>
